Tags
Language
Tags

Duke Ellington & Coleman Hawkins - Duke Ellington Meets Coleman Hawkins (1963) [Reissue 1986]

Posted By:
Duke Ellington & Coleman Hawkins - Duke Ellington Meets Coleman Hawkins (1963) [Reissue 1986]

Duke Ellington & Coleman Hawkins - Duke Ellington Meets Coleman Hawkins (1963) [Reissue 1986]
XLD Rip | FLAC (tracks+.cue+log) - 207 MB | MP3 CBR 320 kbps (LAME 3.93) - 92 MB | Covers - 23 MB
Genre: Jazz, Swing, Big Band | RAR 3% Rec. | Label: MCA/Impulse!/JVC (MCAD-5650, JVC-461)

This set documents a historic occasion. Although Coleman Hawkins had been an admirer of Duke Ellington's music for at least 35 years at this point and Ellington had suggested they record together at least 20 years prior to their actual meeting in 1962, this was their first (and only) meeting on record. Although it would have been preferable to hear the great tenor performing with the full orchestra, his meeting with Ellington and an all-star group taken out of the big band does feature such greats as Ray Nance on cornet and violin, trombonist Lawrence Brown, altoist Johnny Hodges, and baritonist Harry Carney. High points include an exuberant "The Jeep Is Jumpin'," an interesting remake of "Mood Indigo," and a few new Ellington pieces. This delightful music is recommended in one form or another.
Tracklist:
01. Limbo Jazz
02. Mood Indigo
03. Ray Charles' Place
04. Wanderlust
05. You Dirty Dog
06. Self-Portrait (Of the Bean)
07. The Jeep Is Jumpin'
08. The Ricitic

Total time: 39:09

X Lossless Decoder version 20170729 (150.3)

XLD extraction logfile from 2018-02-22 23:19:36 +0100

Duke Ellington/Coleman Hawkins / Duke Ellington meets Coleman Hawkins [MCA Impulse! MCAD-5650]

Used drive : PLEXTOR DVDR PX-755A (revision 1.06)
Media type : Pressed CD

Ripper mode : XLD Secure Ripper
Disable audio cache : OK for the drive with a cache less than 1375KiB
Make use of C2 pointers : NO
Read offset correction : 30
Max retry count : 100
Gap status : Analyzed, Appended (except HTOA)

TOC of the extracted CD
Track | Start | Length | Start sector | End sector
––––––––––––––––––––––––––––-
1 | 00:00:37 | 05:13:28 | 37 | 23539
2 | 05:13:65 | 05:57:02 | 23540 | 50316
3 | 11:10:67 | 04:05:45 | 50317 | 68736
4 | 15:16:37 | 05:01:63 | 68737 | 91374
5 | 20:18:25 | 04:18:42 | 91375 | 110766
6 | 24:36:67 | 03:52:33 | 110767 | 128199
7 | 28:29:25 | 04:48:65 | 128200 | 149864
8 | 33:18:15 | 05:52:02 | 149865 | 176266

List of alternate offset correction values
# | Absolute | Relative | Confidence
–––––––––––––––––––––
1 | 345 | 315 | 12
2 | 143 | 113 | 2

AccurateRip Summary (DiscID: 000c3181-00508620-51092e08)
Track 01 : OK (v1+v2, confidence 12/26)
Track 02 : OK (v1+v2, confidence 12/25)
Track 03 : OK (v1+v2, confidence 12/26)
Track 04 : OK (v1+v2, confidence 12/26)
Track 05 : OK (v1+v2, confidence 11/23)
Track 06 : OK (v1+v2, confidence 11/25)
Track 07 : OK (v1+v2, confidence 11/25)
Track 08 : OK (v1+v2, confidence 11/25)
->All tracks accurately ripped.

All Tracks
Album gain : 0.18 dB
Peak : 0.673340
Statistics
Read error : 0
Jitter error (maybe fixed) : 0
Retry sector count : 0
Damaged sector count : 0

Track 01
Filename : /Duke Ellington meets Coleman Hawkins [MCA Impulse! MCAD-5650]/01 Limbo Jazz.flac
Pre-gap length : 00:02:37

Track gain : -0.44 dB
Peak : 0.673340
CRC32 hash (test run) : 7D267694
CRC32 hash : 7D267694
CRC32 hash (skip zero) : BBB591BA
AccurateRip v1 signature : 7B415FDA
AccurateRip v2 signature : E308E41F
->Accurately ripped (v1+v2, confidence 5+7/26)
Statistics
Read error : 0
Jitter error (maybe fixed) : 0
Retry sector count : 0
Damaged sector count : 0

Track 02
Filename : /Duke Ellington meets Coleman Hawkins [MCA Impulse! MCAD-5650]/02 Mood Indigo.flac

Track gain : 1.25 dB
Peak : 0.579224
CRC32 hash (test run) : 064ACDE4
CRC32 hash : 064ACDE4
CRC32 hash (skip zero) : 96C602C0
AccurateRip v1 signature : C37282CC
AccurateRip v2 signature : 96886A64
->Accurately ripped (v1+v2, confidence 5+7/25)
Statistics
Read error : 0
Jitter error (maybe fixed) : 0
Retry sector count : 0
Damaged sector count : 0

Track 03
Filename : /Duke Ellington meets Coleman Hawkins [MCA Impulse! MCAD-5650]/03 Ray Charles' Place.flac
Pre-gap length : 00:01:04

Track gain : -0.84 dB
Peak : 0.624146
CRC32 hash (test run) : 7B1A8302
CRC32 hash : 7B1A8302
CRC32 hash (skip zero) : B1CEA3D5
AccurateRip v1 signature : E12110E7
AccurateRip v2 signature : 7EBC00D8
->Accurately ripped (v1+v2, confidence 5+7/26)
Statistics
Read error : 0
Jitter error (maybe fixed) : 0
Retry sector count : 0
Damaged sector count : 0

Track 04
Filename : /Duke Ellington meets Coleman Hawkins [MCA Impulse! MCAD-5650]/04 Wanderlust.flac
Pre-gap length : 00:01:34

Track gain : -0.15 dB
Peak : 0.641479
CRC32 hash (test run) : E5B4300B
CRC32 hash : E5B4300B
CRC32 hash (skip zero) : F447DABD
AccurateRip v1 signature : EDE8ACF3
AccurateRip v2 signature : AFC3AEAE
->Accurately ripped (v1+v2, confidence 5+7/26)
Statistics
Read error : 0
Jitter error (maybe fixed) : 0
Retry sector count : 0
Damaged sector count : 0

Track 05
Filename : /Duke Ellington meets Coleman Hawkins [MCA Impulse! MCAD-5650]/05 You Dirty Dog.flac
Pre-gap length : 00:01:42

Track gain : 0.39 dB
Peak : 0.625885
CRC32 hash (test run) : 24DD9DE2
CRC32 hash : 24DD9DE2
CRC32 hash (skip zero) : F173DA16
AccurateRip v1 signature : 5D4BCA7F
AccurateRip v2 signature : 29191D49
->Accurately ripped (v1+v2, confidence 5+6/23)
Statistics
Read error : 0
Jitter error (maybe fixed) : 0
Retry sector count : 0
Damaged sector count : 0

Track 06
Filename : /Duke Ellington meets Coleman Hawkins [MCA Impulse! MCAD-5650]/06 Self-Portrait (of the Bean).flac
Pre-gap length : 00:00:42

Track gain : 1.49 dB
Peak : 0.482697
CRC32 hash (test run) : F8EE95A9
CRC32 hash : F8EE95A9
CRC32 hash (skip zero) : FB4D5D1E
AccurateRip v1 signature : 4BCEE2CC
AccurateRip v2 signature : CEE685BA
->Accurately ripped (v1+v2, confidence 5+6/25)
Statistics
Read error : 0
Jitter error (maybe fixed) : 0
Retry sector count : 0
Damaged sector count : 0

Track 07
Filename : /Duke Ellington meets Coleman Hawkins [MCA Impulse! MCAD-5650]/07 The Jeep Is Jumpin'.flac
Pre-gap length : 00:00:45

Track gain : -0.35 dB
Peak : 0.632233
CRC32 hash (test run) : FDE4F937
CRC32 hash : FDE4F937
CRC32 hash (skip zero) : E7F9E280
AccurateRip v1 signature : CD4604A2
AccurateRip v2 signature : C1B6500A
->Accurately ripped (v1+v2, confidence 5+6/25)
Statistics
Read error : 0
Jitter error (maybe fixed) : 0
Retry sector count : 0
Damaged sector count : 0

Track 08
Filename : /Duke Ellington meets Coleman Hawkins [MCA Impulse! MCAD-5650]/08 The Ricitic.flac
Pre-gap length : 00:01:37

Track gain : 3.42 dB
Peak : 0.561523
CRC32 hash (test run) : 9CD26BCA
CRC32 hash : 9CD26BCA
CRC32 hash (skip zero) : 13C7CAA6
AccurateRip v1 signature : 0BD1C916
AccurateRip v2 signature : 93BC845D
->Accurately ripped (v1+v2, confidence 5+6/25)
Statistics
Read error : 0
Jitter error (maybe fixed) : 0
Retry sector count : 0
Damaged sector count : 0

No errors occurred

End of status report

––-BEGIN XLD SIGNATURE––-
shg8J.X39_KazR8ecH24aLWsTUTXBLnyum_mMEi8yTFlAxaezCK.wUGw9.2ydchKjJYW8fmH.gzcyX0UBBWSAWD7.WabZ.PFBw_nGve
––-END XLD SIGNATURE––-

[CUETools log; Date: 17.09.2021 12:14:07; Version: 2.1.4]
Pregap length 00:00:37.
[CTDB TOCID: IFt9NRjVVxWVqDAlbU7yaJDCdt0-] found.
Track | CTDB Status
1 | (28/29) Accurately ripped
2 | (28/29) Accurately ripped
3 | (29/29) Accurately ripped
4 | (28/29) Accurately ripped
5 | (27/29) Accurately ripped
6 | (27/29) Accurately ripped
7 | (28/29) Accurately ripped
8 | (28/29) Accurately ripped
[AccurateRip ID: 000c3181-00508620-51092e08] found.
Track [ CRC | V2 ] Status
01 [7b415fda|e308e41f] (05+12/35) Accurately ripped
02 [c37282cc|96886a64] (05+12/34) Accurately ripped
03 [e12110e7|7ebc00d8] (05+12/35) Accurately ripped
04 [ede8acf3|afc3aeae] (05+11/34) Accurately ripped
05 [5d4bca7f|29191d49] (05+10/31) Accurately ripped
06 [4bcee2cc|cee685ba] (05+10/33) Accurately ripped
07 [cd4604a2|c1b6500a] (05+09/32) Accurately ripped
08 [0bd1c916|93bc845d] (05+09/32) Accurately ripped
Offsetted by 315:
01 [36f9170b] (03/35) Accurately ripped
02 [b6df68fb] (03/34) Accurately ripped
03 [69a00b91] (03/35) Accurately ripped
04 [95e9ebc3] (03/34) Accurately ripped
05 [0c8b1250] (03/31) Accurately ripped
06 [4dcc6fc0] (03/33) Accurately ripped
07 [44c7504f] (03/32) Accurately ripped
08 [0939672f] (03/32) Accurately ripped
Offsetted by 113:
01 [bdc85bad] (00/35) No match (V2 was not tested)
02 [ead27719] (00/34) No match (V2 was not tested)
03 [d8648f65] (00/35) No match (V2 was not tested)
04 [f7ca3d63] (00/34) No match (V2 was not tested)
05 [8087e032] (00/31) No match (V2 was not tested)
06 [9e9acea8] (00/33) No match (V2 was not tested)
07 [5f5b34e9] (00/32) No match (V2 was not tested)
08 [17e443a1] (00/32) No match (V2 was not tested)

Track Peak [ CRC32 ] [W/O NULL]
– 67,3 [92974BFC] [0D9072C4]
01 67,3 [7D267694] [BBB591BA]
02 57,9 [064ACDE4] [96C602C0]
03 62,4 [7B1A8302] [B1CEA3D5]
04 64,1 [E5B4300B] [F447DABD]
05 62,5 [24DD9DE2] [F173DA16]
06 48,2 [F8EE95A9] [FB4D5D1E]
07 63,2 [FDE4F937] [E7F9E280]
08 56,1 [9CD26BCA] [13C7CAA6]

Thanks to asnikkelbaard

See also:

Duke Ellington - The Private Collection [10CD Box Set] (1996)
Duke Ellington - Duke Ellington at the Bal Masque (1958)
Duke Ellington and His Orchest...nd Beige (1958) [Reissue 1999]
Duke Ellington - 3 Essential Albums (1959-1995) [3CD Box Set] (2017)
Duke Ellington - Jazz Party (1959)
Duke Ellington & Johnny Ho... By Side (1959) [Reissue 1999]
Duke Ellington And His Orchest...amp; 2 / Suite Thursday (1960)
Duke Ellington - Blues In Orbit (1960) [Reissue 2009]
Duke Ellington & John Colt...Coltrane (1963) [Reissue 2010]
Duke Ellington & Coleman H... Hawkins (1963) [Reissue 2010]
Duke Ellington - Soul Call (1967) [Reissue 1999]
Duke Ellington - The Popular Duke Ellington (1967) [Reissue 2002]
Duke Ellington - Orchestral Works (1970) [Reissue 1989]
Duke Ellington - The Afro-Eurasian Eclipse (1971)
Duke Ellington - Love You Madly (1974) [Reissue 2002]
Duke Ellington - Recollections...Band Era (1974) [Reissue 2012]
Duke Ellington - The Intimate Ellington (1977) [Reissue 1992]
Duke Ellington - The Best of Duke Ellington (1980) [Reissue 1991]
Ella Fitzgerald & Duke Ell...Stockholm Concert, 1966 (1984)
Duke Ellington and His Orchestra - Harlem [Recorded 1964] (1985)
Duke Ellington - In the Uncommon Market [Recorded 1963-1966] (1986)
Duke Ellington - Great Original Performances 1927-1934 (1986)
The Duke Ellington Small Bands - The Intimacy Of The Blues (1986)
Duke Ellington - Compact Jazz:...ds [Recorded 1953-1966] (1987)
Duke Ellington - Swing 1930 to 1938 (1989)
Duke Ellington and His Orchestra - Early Ellington (1927-1934) (1989)
Duke Ellington - 40 Great Jazz Performances [3CD] (1990)
Duke Ellington and His Orchestra - 1927-1928 (1990)
Duke Ellington and His Orchestra - 1928 (1990)
Duke Ellington and His Orchestra - 1928-1929 (1990)
Duke Ellington and His Orchestra - 1929-1930 (1991)
Duke Ellington - Standards: Li... Pleyel [Recorded 1969] (1991)
Duke Ellington - Never-Before-Released Recordings (1965-1972) (1991)
Duke Ellington & His Orche...irthday, Duke! Vol. 1-5 (1992)
Duke Ellington - Best Of Duke Ellington (1992)
Duke Ellington and His Orchestra - 1932-1933 (1992)
Duke Ellington and His Orchestra - 1933 (1992)
Duke Ellington and His Orchestra - 1935-1936 (1992)
Duke Ellington & Ella Fitz...oncerto [Recorded 1966] (1993)
Duke Ellington - Live in Europ...gerald) [Recorded 1967] (1994)
Duke Ellington - Le Jazz de A à Z [Recorded 1940-1945] (1994)
Duke Ellington and His Orchestra - 1938-1939 (1994)
Duke Ellington - Duke Ellingto...ts [Recorded 1932-1959] (1995)
Duke Ellington - Cornell University [Recorded 1948] (1995)
Duke Ellington - New York Concert [Recorded 1964] (1995)
Duke Ellington and His Orchestra - 1940 (1995)
Duke Ellington and His Orchestra - 1941 (1995)
Duke Ellington and His Orchestra - 1942-1944 (1996)
Duke Ellington and His Orchestra - 1944-1945 (1996)
Duke Ellington and His Orchestra - 1945 (1996)
Duke Ellington - This Is Jazz [Recorded 1927-1959] (1996)
Duke Ellington - Sophisticated Lady [Recorded 1940-1946] (1996)
Duke Ellington and His Orchestra - 1945 Vol. 2 (1997)
Duke Ellington - Jazz Masters 1953-1955 (1997)
Duke Ellington - Jazz Profile [Recorded 1953-1971] (1997)
Duke Ellington - Mellow (1997)
Duke Ellington and His Orchestra - 1945-1946 (1998)
Duke Ellington - This Is Jazz ...ds [Recorded 1935-1964] (1998)
Duke Ellington - Live in Mexico [Recorded 1968] (1998)
Duke Ellington - The Duke in Washington [Recorded 1943-1969] (1999)
Duke Ellington - Masterpieces 1926-1949 [4CD Box Set] (2001)
Duke Ellington - Love Songs [Recorded 1941-1963] (2001)
Duke Ellington and His Orchestra - 1950 (2001)
Duke Ellington - At The Alhambra [Recorded 1958] (2002)
Duke Ellington - Alhambra - Oct. 29th, 1958 [2CD] (2002)
Duke Ellington - Never No Lame...1940-1942, 3CD Box Set] (2003)
Duke Ellington - The Essential...on [Recorded 1927-1960] (2005)
Duke Ellington And His Orchest...h, Switzerland 2.5.1950 (2007)
Duke Ellington - The Best Of D...932-1939) [4CD Box Set] (2008)
Duke Ellington - Columbia Jazz Profiles [Recorded 1931-1960] (2008)
Duke Ellington - Live in Warsaw October 30, 1971 (2009)
Duke Ellington Orchestra - Big...tuttgart, March 6, 1967 (2011)
Duke Ellington - Blue Note Jaz...on [Recorded 1953-1969] (2012)
Duke Ellington - The Real… Duke Ellington [3CD Box Set] (2012)
Duke Ellington - The Complete Newport 1958 Performances (2014)

Coleman Hawkins - Soul (1958) [Reissue 2006]
Coleman Hawkins - Coleman Hawkins And Confrères (1958) [Reissue 1988]
Coleman Hawkins & Ben Webs... Webster (1959) [Reissue 2005]
Coleman Hawkins - Coleman Hawk...and Trio (1959) [Reissue 1989]
Coleman Hawkins with Eddie &qu...ght Hawk (1961) [Reissue 2006]
Coleman Hawkins Quartet - Today And Now (1963) [Reissue 1996]
Sonny Rollins and Coleman Hawk...ts Hawk! (1963) [Reissue 2000]
Duke Ellington & Coleman H... Hawkins (1963) [Reissue 2010]
Coleman Hawkins - Wrapped Tight (1965) [Reissue 1991]
Coleman Hawkins & Frank We...ax [Recorded 1940-1954] (1988)
Coleman Hawkins - 1929-1934 (1991)
Coleman Hawkins - 1934-1937 (1991)
Coleman Hawkins - Supreme [Recorded 1966] (1995) [Reissue 2008]
Coleman Hawkins - 1944 (1995)
Coleman Hawkins - 1945 (1997)
Coleman Hawkins - In A Mellow Tone [Recorded 1958-1962] (1998)
Coleman Hawkins - 1947-1950 (2001)
Coleman Hawkins - 1950-1953 (2004)
Coleman Hawkins Quartet - Complete 1962 Studio Recordings (2013)