Tags
Language
Tags
November 2022
Su Mo Tu We Th Fr Sa
30 31 1 2 3 4 5
6 7 8 9 10 11 12
13 14 15 16 17 18 19
20 21 22 23 24 25 26
27 28 29 30 1 2 3

Duke Ellington and His Orchestra - 1939 (1994)

Posted By: gribovar
Duke Ellington and His Orchestra - 1939 (1994)

Duke Ellington and His Orchestra - 1939 (1994)
EAC Rip | FLAC (tracks+.cue+log) - 212 MB | Covers (7 MB) included
Genre: Jazz, Big Band, Swing | RAR 3% Rec. | Label: Classics Records (CLASSICS 765)

The 1939 Duke Ellington Orchestra was a mighty force, with eight major soloists and a genius as their leader. Billy Strayhorn first worked with Ellington during this period and on this CD he contributes "Something to Live For" (which is surprisingly sung by Jean Eldridge rather than the band's regular vocalist, Ivie Anderson). This disc has ten selections from the full orchestra, eight from small groups led by altoist Johnny Hodges, two from clarinetist Barney Bigard's combo, and two vocal features for the Quintones. Highlights include "Rent Party Blues," "Portrait of the Lion" (Ellington's tribute to his idol, Willie "The Lion" Smith), a remake of "Cotton Club Stomp," and "Serenade to Sweden."
Tracklist:
01. Lady in Blue
02. Smorgasbord and Schnapps
03. Savoy Strut
04. Rent Party Blues
05. Dance of the Goon
06. Good Gal Blues
07. Finesse (Night Wind)
08. Portrait of the Lion
09. (I Want) Something to Live For
10. Solid Old Man
11. Kitchen Mechanic's Day
12. My Heart Jumped over the Moon
13. You Can Count on Me
14. Home Town Blues
15. Cotton Club Stomp
16. Doin' the Voom Voom
17. Way Low
18. Serenade to Sweden
19. Utt-Da-Zay (The Tailor Song)
20. Chew Chew Chew (Chew Your Bubble Gum)
21. Barney Goin' Easy
22. Just Another Dream

Total time: 01:02:22

Exact Audio Copy V1.1 from 23. June 2015

EAC extraction logfile from 16. October 2016, 10:50

Duke Ellington / 1939

Used drive : PBDS CD-ROM DH-48N1S Adapter: 1 ID: 0

Read mode : Secure
Utilize accurate stream : Yes
Defeat audio cache : Yes
Make use of C2 pointers : No

Read offset correction : 6
Overread into Lead-In and Lead-Out : No
Fill up missing offset samples with silence : Yes
Delete leading and trailing silent blocks : No
Null samples used in CRC calculations : Yes
Used interface : Native Win32 interface for Win NT & 2000
Gap handling : Appended to previous track

Used output format : User Defined Encoder
Selected bitrate : 768 kBit/s
Quality : High
Add ID3 tag : No
Command line compressor : C:\Program Files (x86)\Exact Audio Copy\FLAC\FLAC.EXE
Additional command line options : -8 -V -T "ARTIST=%artist%" -T "TITLE=%title%" -T "ALBUM=%albumtitle%" -T "DATE=%year%" -T "TRACKNUMBER=%tracknr%" -T "GENRE=%genre%" -T "PERFORMER=%albuminterpret%" -T "COMPOSER=%composer%" %haslyrics%–tag-from-file=LYRICS="%lyricsfile%"%haslyrics% -T "ALBUMARTIST=%albumartist%" -T "DISCNUMBER=%cdnumber%" -T "TOTALDISCS=%totalcds%" -T "TOTALTRACKS=%numtracks%" -T "COMMENT=%comment%" %source% -o %dest%


TOC of the extracted CD

Track | Start | Length | Start sector | End sector
––––––––––––––––––––––––––––-
1 | 0:00.32 | 2:56.50 | 32 | 13281
2 | 2:57.07 | 2:42.25 | 13282 | 25456
3 | 5:39.32 | 2:34.23 | 25457 | 37029
4 | 8:13.55 | 2:42.20 | 37030 | 49199
5 | 10:56.00 | 2:37.32 | 49200 | 61006
6 | 13:33.32 | 3:01.10 | 61007 | 74591
7 | 16:34.42 | 2:41.13 | 74592 | 86679
8 | 19:15.55 | 2:27.40 | 86680 | 97744
9 | 21:43.20 | 2:52.62 | 97745 | 110706
10 | 24:36.07 | 2:42.65 | 110707 | 122921
11 | 27:18.72 | 2:33.23 | 122922 | 134419
12 | 29:52.20 | 2:39.45 | 134420 | 146389
13 | 32:31.65 | 3:18.37 | 146390 | 161276
14 | 35:50.27 | 2:42.10 | 161277 | 173436
15 | 38:32.37 | 2:52.70 | 173437 | 186406
16 | 41:25.32 | 2:43.43 | 186407 | 198674
17 | 44:09.00 | 3:30.22 | 198675 | 214446
18 | 47:39.22 | 3:24.73 | 214447 | 229819
19 | 51:04.20 | 2:50.67 | 229820 | 242636
20 | 53:55.12 | 2:44.35 | 242637 | 254971
21 | 56:39.47 | 2:59.25 | 254972 | 268421
22 | 59:38.72 | 2:45.05 | 268422 | 280801


Track 1

Filename C:\EACRips\01 - Lady In Blue.wav

Pre-gap length 0:00:02.42

Peak level 69.3 %
Extraction speed 4.2 X
Track quality 100.0 %
Test CRC 2528BF71
Copy CRC 2528BF71
Accurately ripped (confidence 3) [FFF9DC0A] (AR v2)
Copy OK

Track 2

Filename C:\EACRips\02 - Smorgasbord And Schnapps.wav

Pre-gap length 0:00:01.49

Peak level 95.2 %
Extraction speed 4.2 X
Track quality 99.9 %
Test CRC 6FD97FA6
Copy CRC 6FD97FA6
Accurately ripped (confidence 3) [D6843C31] (AR v2)
Copy OK

Track 3

Filename C:\EACRips\03 - Savoy Strut.wav

Pre-gap length 0:00:01.20

Peak level 72.5 %
Extraction speed 5.4 X
Track quality 100.0 %
Test CRC C4CB82D4
Copy CRC C4CB82D4
Accurately ripped (confidence 4) [9DCB99D2] (AR v2)
Copy OK

Track 4

Filename C:\EACRips\04 - Rent Party Blues.wav

Pre-gap length 0:00:01.37

Peak level 73.5 %
Extraction speed 5.7 X
Track quality 100.0 %
Test CRC 9B5B8426
Copy CRC 9B5B8426
Accurately ripped (confidence 4) [4C0CF16F] (AR v2)
Copy OK

Track 5

Filename C:\EACRips\05 - Dance Of The Goon.wav

Pre-gap length 0:00:01.46

Peak level 68.2 %
Extraction speed 6.0 X
Track quality 100.0 %
Test CRC 525639DE
Copy CRC 525639DE
Accurately ripped (confidence 3) [767D5232] (AR v2)
Copy OK

Track 6

Filename C:\EACRips\06 - Good Gal Blues.wav

Pre-gap length 0:00:01.22

Peak level 79.9 %
Extraction speed 6.4 X
Track quality 100.0 %
Test CRC D1B78424
Copy CRC D1B78424
Accurately ripped (confidence 4) [10AA2DED] (AR v2)
Copy OK

Track 7

Filename C:\EACRips\07 - Finesse (Night Wind).wav

Pre-gap length 0:00:01.42

Peak level 63.8 %
Extraction speed 6.6 X
Track quality 100.0 %
Test CRC C81AB8F2
Copy CRC C81AB8F2
Accurately ripped (confidence 4) [EB26A96B] (AR v2)
Copy OK

Track 8

Filename C:\EACRips\08 - Portrait Of The Lion.wav

Pre-gap length 0:00:01.66

Peak level 84.3 %
Extraction speed 6.6 X
Track quality 100.0 %
Test CRC 34DCDE55
Copy CRC 34DCDE55
Accurately ripped (confidence 3) [6F5895C1] (AR v2)
Copy OK

Track 9

Filename C:\EACRips\09 - (I Want) Something To Live For.wav

Pre-gap length 0:00:01.10

Peak level 68.1 %
Extraction speed 7.1 X
Track quality 100.0 %
Test CRC 9680705C
Copy CRC 9680705C
Accurately ripped (confidence 3) [225182F4] (AR v2)
Copy OK

Track 10

Filename C:\EACRips\10 - Solid Old Man.wav

Pre-gap length 0:00:01.82

Peak level 87.5 %
Extraction speed 7.2 X
Track quality 100.0 %
Test CRC A1871A02
Copy CRC A1871A02
Accurately ripped (confidence 3) [AE5E57B1] (AR v2)
Copy OK

Track 11

Filename C:\EACRips\11 - Kitchen Mechanic's Day.wav

Pre-gap length 0:00:01.56

Peak level 81.9 %
Extraction speed 7.3 X
Track quality 100.0 %
Test CRC 08CA4E74
Copy CRC 08CA4E74
Accurately ripped (confidence 4) [EA536D62] (AR v2)
Copy OK

Track 12

Filename C:\EACRips\12 - My Heart Jumped Over The Moon.wav

Pre-gap length 0:00:01.20

Peak level 76.6 %
Extraction speed 7.4 X
Track quality 100.0 %
Test CRC 8C734C2E
Copy CRC 8C734C2E
Accurately ripped (confidence 4) [75E9FF53] (AR v2)
Copy OK

Track 13

Filename C:\EACRips\13 - You Can Count On Me.wav

Pre-gap length 0:00:01.30

Peak level 66.5 %
Extraction speed 5.5 X
Track quality 100.0 %
Test CRC 248AA6A1
Copy CRC 248AA6A1
Accurately ripped (confidence 4) [07FAB2EE] (AR v2)
Copy OK

Track 14

Filename C:\EACRips\14 - Home Town Blues.wav

Pre-gap length 0:00:01.26

Peak level 66.4 %
Extraction speed 8.0 X
Track quality 100.0 %
Test CRC 6B130F33
Copy CRC 6B130F33
Accurately ripped (confidence 4) [0AA652F4] (AR v2)
Copy OK

Track 15

Filename C:\EACRips\15 - Cotton Club Stomp.wav

Pre-gap length 0:00:01.49

Peak level 85.8 %
Extraction speed 8.0 X
Track quality 100.0 %
Test CRC E71B9A53
Copy CRC E71B9A53
Accurately ripped (confidence 3) [7D450842] (AR v2)
Copy OK

Track 16

Filename C:\EACRips\16 - Doin' The Voom Voom.wav

Pre-gap length 0:00:01.09

Peak level 80.1 %
Extraction speed 8.2 X
Track quality 100.0 %
Test CRC EFDACA5A
Copy CRC EFDACA5A
Accurately ripped (confidence 3) [FB195D51] (AR v2)
Copy OK

Track 17

Filename C:\EACRips\17 - Way Low.wav

Pre-gap length 0:00:01.66

Peak level 86.9 %
Extraction speed 8.9 X
Track quality 100.0 %
Test CRC 79138927
Copy CRC 79138927
Accurately ripped (confidence 3) [1E955B1E] (AR v2)
Copy OK

Track 18

Filename C:\EACRips\18 - Serenade To Sweden.wav

Pre-gap length 0:00:01.29

Peak level 62.1 %
Extraction speed 9.2 X
Track quality 100.0 %
Test CRC 5B8D4F47
Copy CRC 5B8D4F47
Accurately ripped (confidence 3) [3EC902AB] (AR v2)
Copy OK

Track 19

Filename C:\EACRips\19 - Utt-Da-Zay (The Tailor Song).wav

Pre-gap length 0:00:01.40

Peak level 66.1 %
Extraction speed 9.0 X
Track quality 100.0 %
Test CRC 0E0F2FE0
Copy CRC 0E0F2FE0
Accurately ripped (confidence 3) [1582AB40] (AR v2)
Copy OK

Track 20

Filename C:\EACRips\20 - Chew Chew Chew (Chew Your Bubble Gum).wav

Pre-gap length 0:00:01.82

Peak level 66.5 %
Extraction speed 9.1 X
Track quality 100.0 %
Test CRC 41F5FEA3
Copy CRC 41F5FEA3
Accurately ripped (confidence 3) [725710AE] (AR v2)
Copy OK

Track 21

Filename C:\EACRips\21 - Barney Goin' Easy.wav

Pre-gap length 0:00:01.73

Peak level 64.0 %
Extraction speed 9.5 X
Track quality 100.0 %
Test CRC 97D7C41B
Copy CRC 97D7C41B
Accurately ripped (confidence 4) [380A0CBD] (AR v2)
Copy OK

Track 22

Filename C:\EACRips\22 - Just Another Dream.wav

Pre-gap length 0:00:01.53

Peak level 63.3 %
Extraction speed 9.6 X
Track quality 100.0 %
Test CRC 33121047
Copy CRC 33121047
Accurately ripped (confidence 4) [0A32C8D4] (AR v2)
Copy OK


All tracks accurately ripped

No errors occurred

End of status report

–– CUETools DB Plugin V2.1.6

[CTDB TOCID: jkNfmRd6Sy19MHYJuS3DO23gtFQ-] disk not present in database
Submit result: jkNfmRd6Sy19MHYJuS3DO23gtFQ- has been uploaded


==== Log checksum C4A045625ED3377B7EC394113C7B5E3461DFD1198A901DFF2BF017E71828F6A3 ====

[CUETools log; Date: 04.05.2018 15:23:26; Version: 2.1.4]
Pregap length 00:00:32.
[CTDB TOCID: jkNfmRd6Sy19MHYJuS3DO23gtFQ-] found.
Track | CTDB Status
1 | (2/2) Accurately ripped
2 | (2/2) Accurately ripped
3 | (2/2) Accurately ripped
4 | (2/2) Accurately ripped
5 | (2/2) Accurately ripped
6 | (2/2) Accurately ripped
7 | (2/2) Accurately ripped
8 | (2/2) Accurately ripped
9 | (2/2) Accurately ripped
10 | (2/2) Accurately ripped
11 | (2/2) Accurately ripped
12 | (2/2) Accurately ripped
13 | (2/2) Accurately ripped
14 | (2/2) Accurately ripped
15 | (2/2) Accurately ripped
16 | (2/2) Accurately ripped
17 | (2/2) Accurately ripped
18 | (2/2) Accurately ripped
19 | (2/2) Accurately ripped
20 | (2/2) Accurately ripped
21 | (2/2) Accurately ripped
22 | (2/2) Accurately ripped
[AccurateRip ID: 00306038-0309720c-420ea016] found.
Track [ CRC | V2 ] Status
01 [c8c6fc78|fff9dc0a] (0+3/3) Accurately ripped
02 [b19b0c4d|d6843c31] (0+3/3) Accurately ripped
03 [d0224f03|9dcb99d2] (0+4/4) Accurately ripped
04 [40660f11|4c0cf16f] (0+4/4) Accurately ripped
05 [2fe1338a|767d5232] (0+3/3) Accurately ripped
06 [322d9399|10aa2ded] (0+4/4) Accurately ripped
07 [e08d32ed|eb26a96b] (0+4/4) Accurately ripped
08 [9667d656|6f5895c1] (0+3/3) Accurately ripped
09 [1f003fcf|225182f4] (0+3/3) Accurately ripped
10 [fed2e6b7|ae5e57b1] (0+3/3) Accurately ripped
11 [ad23fc7f|ea536d62] (0+4/4) Accurately ripped
12 [ee5c937f|75e9ff53] (0+4/4) Accurately ripped
13 [149f89be|07fab2ee] (0+4/4) Accurately ripped
14 [64eda790|0aa652f4] (0+4/4) Accurately ripped
15 [3c91c353|7d450842] (0+3/3) Accurately ripped
16 [7ff623ce|fb195d51] (0+3/3) Accurately ripped
17 [256f8388|1e955b1e] (0+3/3) Accurately ripped
18 [9b91936a|3ec902ab] (0+3/3) Accurately ripped
19 [9a62126a|1582ab40] (0+3/3) Accurately ripped
20 [394fa03f|725710ae] (0+3/3) Accurately ripped
21 [4310f78d|380a0cbd] (0+4/4) Accurately ripped
22 [83ed4eb3|0a32c8d4] (0+4/4) Accurately ripped

Track Peak [ CRC32 ] [W/O NULL] [ LOG ]
– 95,2 [9D35E79D] [A9AC7ACC]
01 69,3 [2528BF71] [6C0D049D] CRC32
02 95,2 [6FD97FA6] [4635FA71] CRC32
03 72,5 [C4CB82D4] [701FC108] CRC32
04 73,5 [9B5B8426] [CC624640] CRC32
05 68,2 [525639DE] [645B112C] CRC32
06 79,9 [D1B78424] [7B2B9E81] CRC32
07 63,8 [C81AB8F2] [6D24415A] CRC32
08 84,3 [34DCDE55] [F34425EB] CRC32
09 68,1 [9680705C] [A5A490CF] CRC32
10 87,5 [A1871A02] [E543FE7A] CRC32
11 81,9 [08CA4E74] [B50AA795] CRC32
12 76,6 [8C734C2E] [D379D6A3] CRC32
13 66,5 [248AA6A1] [AC775117] CRC32
14 66,4 [6B130F33] [B80781C8] CRC32
15 85,8 [E71B9A53] [775B64A8] CRC32
16 80,1 [EFDACA5A] [B43BE27B] CRC32
17 86,9 [79138927] [E3EF6666] CRC32
18 62,1 [5B8D4F47] [5725D078] CRC32
19 66,1 [0E0F2FE0] [D4D829BC] CRC32
20 66,5 [41F5FEA3] [442F7A51] CRC32
21 64,0 [97D7C41B] [4259E868] CRC32
22 63,3 [33121047] [42289FF4] CRC32

Thanks to robman62

See also: