Tags
Language
Tags
November 2022
Su Mo Tu We Th Fr Sa
30 31 1 2 3 4 5
6 7 8 9 10 11 12
13 14 15 16 17 18 19
20 21 22 23 24 25 26
27 28 29 30 1 2 3

Duke Ellington and His Orchestra - 1945 Vol. 2 (1997)

Posted By: gribovar
Duke Ellington and His Orchestra - 1945 Vol. 2 (1997)

Duke Ellington and His Orchestra - 1945 Vol. 2 (1997)
EAC Rip | FLAC (tracks+.cue+log) - 241 MB | Covers (6 MB) included
Genre: Jazz, Big Band, Swing | RAR 3% Rec. | Label: Classics Records (CLASSICS 951)

Duke Ellington's orchestra in 1945 was riding quite high, with annual Carnegie Hall concerts, constant performing and recording, and appearances on many radio broadcasts. This disc features both studio recordings and a few V-Discs taken from radio shows. The latter are most notable for including the extended two-part "Frankie and Johnny" and the 12-and-a-half-minute "New World A-Comin'," while the studio recordings are highlighted by "Jumpin' Room Only" and three of the four parts of "Perfume Suite." With such soloists as Tricky Sam Nanton, Lawrence Brown, Al Sears, Johnny Hodges, Harry Carney, and four trumpeters, Ellington's big band remained at the top of its field as World War II came to an end.
Tracklist:
01. Frankie and Johnnie
02. Jumpin' Room Only
03. Black Beauty
04. Every Hour on the Hour
05. Hollywood Hangover
06. Kissing Bug
07. In the Shade of the Old Apple Tree
08. Frankie and Johnnie - Part 1
09. Frankie and Johnnie - Part 2
10. Sugar Hill Penthouse (Black, Brown & Beige)
11. Diminuendo in Blue/Crescendo in Blue
12. New World A Comin' - Part 1
13. New World A Comin' - Part 2
14. Prelude to a Kiss
15. Ring Dem Bells
16. Perfume Suite - Strange Feeling
17. Perfume Suite - Coloratura
18. Perfume Suite - Balcony Serenade

Total time: 01:10:30

Exact Audio Copy V1.1 from 23. June 2015

EAC extraction logfile from 20. October 2016, 12:50

Duke Ellington / 1945 Vol. 2

Used drive : PBDS CD-ROM DH-48N1S Adapter: 1 ID: 0

Read mode : Secure
Utilize accurate stream : Yes
Defeat audio cache : Yes
Make use of C2 pointers : No

Read offset correction : 6
Overread into Lead-In and Lead-Out : No
Fill up missing offset samples with silence : Yes
Delete leading and trailing silent blocks : No
Null samples used in CRC calculations : Yes
Used interface : Native Win32 interface for Win NT & 2000
Gap handling : Appended to previous track

Used output format : User Defined Encoder
Selected bitrate : 768 kBit/s
Quality : High
Add ID3 tag : No
Command line compressor : C:\Program Files (x86)\Exact Audio Copy\FLAC\FLAC.EXE
Additional command line options : -8 -V -T "ARTIST=%artist%" -T "TITLE=%title%" -T "ALBUM=%albumtitle%" -T "DATE=%year%" -T "TRACKNUMBER=%tracknr%" -T "GENRE=%genre%" -T "PERFORMER=%albuminterpret%" -T "COMPOSER=%composer%" %haslyrics%–tag-from-file=LYRICS="%lyricsfile%"%haslyrics% -T "ALBUMARTIST=%albumartist%" -T "DISCNUMBER=%cdnumber%" -T "TOTALDISCS=%totalcds%" -T "TOTALTRACKS=%numtracks%" -T "COMMENT=%comment%" %source% -o %dest%


TOC of the extracted CD

Track | Start | Length | Start sector | End sector
––––––––––––––––––––––––––––-
1 | 0:00.32 | 3:08.70 | 32 | 14201
2 | 3:09.27 | 3:01.10 | 14202 | 27786
3 | 6:10.37 | 2:51.65 | 27787 | 40676
4 | 9:02.27 | 3:09.68 | 40677 | 54919
5 | 12:12.20 | 3:40.07 | 54920 | 71426
6 | 15:52.27 | 3:04.73 | 71427 | 85299
7 | 18:57.25 | 4:57.10 | 85300 | 107584
8 | 23:54.35 | 4:13.57 | 107585 | 126616
9 | 28:08.17 | 3:13.03 | 126617 | 141094
10 | 31:21.20 | 4:24.25 | 141095 | 160919
11 | 35:45.45 | 6:32.60 | 160920 | 190379
12 | 42:18.30 | 6:17.45 | 190380 | 218699
13 | 48:36.00 | 6:16.70 | 218700 | 246969
14 | 54:52.70 | 2:54.55 | 246970 | 260074
15 | 57:47.50 | 3:15.62 | 260075 | 274761
16 | 61:03.37 | 3:12.30 | 274762 | 289191
17 | 64:15.67 | 3:03.73 | 289192 | 302989
18 | 67:19.65 | 3:09.45 | 302990 | 317209


Track 1

Filename C:\EACRips\01 - Frankie And Johnnie.wav

Pre-gap length 0:00:02.42

Peak level 90.4 %
Extraction speed 3.6 X
Track quality 100.0 %
Test CRC 8C79F6E7
Copy CRC 8C79F6E7
Accurately ripped (confidence 2) [9DE3EE40] (AR v2)
Copy OK

Track 2

Filename C:\EACRips\02 - Jumpin' Room Only.wav

Pre-gap length 0:00:01.66

Peak level 99.7 %
Extraction speed 5.3 X
Track quality 100.0 %
Test CRC B0C6C8B5
Copy CRC B0C6C8B5
Accurately ripped (confidence 2) [5E938F1F] (AR v2)
Copy OK

Track 3

Filename C:\EACRips\03 - Black Beauty.wav

Pre-gap length 0:00:01.29

Peak level 96.6 %
Extraction speed 5.6 X
Track quality 100.0 %
Test CRC D90F7954
Copy CRC D90F7954
Accurately ripped (confidence 2) [776EE603] (AR v2)
Copy OK

Track 4

Filename C:\EACRips\04 - Every Hour On The Hour.wav

Pre-gap length 0:00:01.40

Peak level 84.9 %
Extraction speed 5.0 X
Track quality 99.9 %
Test CRC C3B43125
Copy CRC C3B43125
Accurately ripped (confidence 2) [D4DD32BF] (AR v2)
Copy OK

Track 5

Filename C:\EACRips\05 - Hollywood Hangover.wav

Pre-gap length 0:00:01.70

Peak level 100.0 %
Extraction speed 4.8 X
Track quality 99.9 %
Test CRC 1B60EE1E
Copy CRC 1B60EE1E
Accurately ripped (confidence 2) [D8E9C493] (AR v2)
Copy OK

Track 6

Filename C:\EACRips\06 - Kissing Bug.wav

Pre-gap length 0:00:01.46

Peak level 83.4 %
Extraction speed 6.6 X
Track quality 100.0 %
Test CRC 4C39736C
Copy CRC 4C39736C
Accurately ripped (confidence 2) [8275F782] (AR v2)
Copy OK

Track 7

Filename C:\EACRips\07 - In The Shade Of The Old Apple Tree.wav

Pre-gap length 0:00:01.46

Peak level 99.6 %
Extraction speed 6.5 X
Track quality 99.9 %
Test CRC 719DB60C
Copy CRC 719DB60C
Accurately ripped (confidence 2) [BB3E3B8A] (AR v2)
Copy OK

Track 8

Filename C:\EACRips\08 - Frankie And Johnnie - Part 1.wav

Pre-gap length 0:00:01.66

Peak level 99.7 %
Extraction speed 7.7 X
Track quality 100.0 %
Test CRC 669EF529
Copy CRC 669EF529
Accurately ripped (confidence 2) [1835B231] (AR v2)
Copy OK

Track 9

Filename C:\EACRips\09 - Frankie And Johnnie - Part 2.wav

Pre-gap length 0:00:01.56

Peak level 99.7 %
Extraction speed 7.4 X
Track quality 100.0 %
Test CRC 9BDFC975
Copy CRC 9BDFC975
Accurately ripped (confidence 2) [0CF6305E] (AR v2)
Copy OK

Track 10

Filename C:\EACRips\10 - Sugar Hill Penthouse (Black, Brown & Beige).wav

Pre-gap length 0:00:01.33

Peak level 93.1 %
Extraction speed 8.4 X
Track quality 100.0 %
Test CRC 0A5480FA
Copy CRC 0A5480FA
Accurately ripped (confidence 2) [6805DDCA] (AR v2)
Copy OK

Track 11

Filename C:\EACRips\11 - Diminuendo In Blue_Crescendo In Blue.wav

Pre-gap length 0:00:01.20

Peak level 99.8 %
Extraction speed 9.1 X
Track quality 100.0 %
Test CRC 703E9006
Copy CRC 703E9006
Accurately ripped (confidence 2) [A914AE97] (AR v2)
Copy OK

Track 12

Filename C:\EACRips\12 - New World A Comin' - Part 1.wav

Pre-gap length 0:00:01.33

Peak level 99.9 %
Extraction speed 8.3 X
Track quality 100.0 %
Test CRC 74177D05
Copy CRC 74177D05
Accurately ripped (confidence 2) [49934B0F] (AR v2)
Copy OK

Track 13

Filename C:\EACRips\13 - New World A Comin' - Part 2.wav

Pre-gap length 0:00:01.33

Peak level 90.0 %
Extraction speed 10.0 X
Track quality 100.0 %
Test CRC AAD7EEB3
Copy CRC AAD7EEB3
Accurately ripped (confidence 2) [B6909958] (AR v2)
Copy OK

Track 14

Filename C:\EACRips\14 - Prelude To A Kiss.wav

Pre-gap length 0:00:01.57

Peak level 75.5 %
Extraction speed 8.0 X
Track quality 100.0 %
Test CRC AEE18C5D
Copy CRC AEE18C5D
Accurately ripped (confidence 2) [AD55ACA7] (AR v2)
Copy OK

Track 15

Filename C:\EACRips\15 - Ring Dem Bells.wav

Pre-gap length 0:00:01.37

Peak level 99.9 %
Extraction speed 9.4 X
Track quality 100.0 %
Test CRC 3E8EAE45
Copy CRC 3E8EAE45
Accurately ripped (confidence 2) [BEEC127A] (AR v2)
Copy OK

Track 16

Filename C:\EACRips\16 - Perfume Suite - Strange Feeling.wav

Pre-gap length 0:00:00.82

Peak level 83.7 %
Extraction speed 9.8 X
Track quality 100.0 %
Test CRC 68171909
Copy CRC 68171909
Accurately ripped (confidence 2) [CB3D6689] (AR v2)
Copy OK

Track 17

Filename C:\EACRips\17 - Perfume Suite - Coloratura.wav

Pre-gap length 0:00:01.26

Peak level 82.4 %
Extraction speed 9.8 X
Track quality 100.0 %
Test CRC A21FE11C
Copy CRC A21FE11C
Accurately ripped (confidence 2) [E7AF95D9] (AR v2)
Copy OK

Track 18

Filename C:\EACRips\18 - Perfume Suite - Balcony Serenade.wav

Pre-gap length 0:00:01.40

Peak level 82.2 %
Extraction speed 8.1 X
Track quality 99.9 %
Test CRC 7E005F5D
Copy CRC 7E005F5D
Accurately ripped (confidence 2) [235F6D3C] (AR v2)
Copy OK


All tracks accurately ripped

No errors occurred

End of status report

–– CUETools DB Plugin V2.1.6

[CTDB TOCID: WlnEziAmuC_wM10Hz4ZRY_RDLZY-] found
Submit result: WlnEziAmuC_wM10Hz4ZRY_RDLZY- has been confirmed
Track | CTDB Status
1 | (1/1) Accurately ripped
2 | (1/1) Accurately ripped
3 | (1/1) Accurately ripped
4 | (1/1) Accurately ripped
5 | (1/1) Accurately ripped
6 | (1/1) Accurately ripped
7 | (1/1) Accurately ripped
8 | (1/1) Accurately ripped
9 | (1/1) Accurately ripped
10 | (1/1) Accurately ripped
11 | (1/1) Accurately ripped
12 | (1/1) Accurately ripped
13 | (1/1) Accurately ripped
14 | (1/1) Accurately ripped
15 | (1/1) Accurately ripped
16 | (1/1) Accurately ripped
17 | (1/1) Accurately ripped
18 | (1/1) Accurately ripped


==== Log checksum BD7C94C46264B2D4B0007B822BCC17214BE30726D92DCE394404AE27E5294748 ====

[CUETools log; Date: 14.05.2018 16:38:24; Version: 2.1.4]
Pregap length 00:00:32.
[CTDB TOCID: WlnEziAmuC_wM10Hz4ZRY_RDLZY-] found.
Track | CTDB Status
1 | (4/4) Accurately ripped
2 | (4/4) Accurately ripped
3 | (4/4) Accurately ripped
4 | (4/4) Accurately ripped
5 | (4/4) Accurately ripped
6 | (4/4) Accurately ripped
7 | (4/4) Accurately ripped
8 | (4/4) Accurately ripped
9 | (4/4) Accurately ripped
10 | (4/4) Accurately ripped
11 | (4/4) Accurately ripped
12 | (4/4) Accurately ripped
13 | (4/4) Accurately ripped
14 | (4/4) Accurately ripped
15 | (4/4) Accurately ripped
16 | (4/4) Accurately ripped
17 | (4/4) Accurately ripped
18 | (4/4) Accurately ripped
[AccurateRip ID: 002cb899-0262e575-10108512] found.
Track [ CRC | V2 ] Status
01 [38bde5dc|9de3ee40] (2+2/4) Accurately ripped
02 [69d66855|5e938f1f] (2+2/4) Accurately ripped
03 [94944dd4|776ee603] (2+2/4) Accurately ripped
04 [c70a6eb8|d4dd32bf] (2+2/4) Accurately ripped
05 [c655cf02|d8e9c493] (2+2/4) Accurately ripped
06 [501e0e0e|8275f782] (2+2/4) Accurately ripped
07 [b4a7c158|bb3e3b8a] (2+2/4) Accurately ripped
08 [146e14c5|1835b231] (2+2/4) Accurately ripped
09 [2b7c179c|0cf6305e] (2+2/4) Accurately ripped
10 [5b2611ed|6805ddca] (2+2/4) Accurately ripped
11 [5aa8ba92|a914ae97] (2+2/4) Accurately ripped
12 [ed3e79d2|49934b0f] (2+2/4) Accurately ripped
13 [318591ec|b6909958] (2+2/4) Accurately ripped
14 [231b1c69|ad55aca7] (2+2/4) Accurately ripped
15 [1437374c|beec127a] (2+2/4) Accurately ripped
16 [0c491b91|cb3d6689] (2+2/4) Accurately ripped
17 [b3bebf93|e7af95d9] (2+2/4) Accurately ripped
18 [9592bccf|235f6d3c] (2+2/4) Accurately ripped

Track Peak [ CRC32 ] [W/O NULL] [ LOG ]
– 100,0 [2784D87C] [686FF4B1]
01 90,4 [8C79F6E7] [366600D5] CRC32
02 99,7 [B0C6C8B5] [CD4BE1C0] CRC32
03 96,6 [D90F7954] [E1FA4E3E] CRC32
04 84,9 [C3B43125] [0DA97A00] CRC32
05 100,0 [1B60EE1E] [C65D8F11] CRC32
06 83,4 [4C39736C] [6EA36B51] CRC32
07 99,6 [719DB60C] [41925BFA] CRC32
08 99,7 [669EF529] [F0D28805] CRC32
09 99,7 [9BDFC975] [1B67A555] CRC32
10 93,1 [0A5480FA] [3E5B188A] CRC32
11 99,8 [703E9006] [A6F32AD4] CRC32
12 99,9 [74177D05] [4D91AEEF] CRC32
13 90,0 [AAD7EEB3] [D143CBBA] CRC32
14 75,5 [AEE18C5D] [B9E7C7A4] CRC32
15 99,9 [3E8EAE45] [F056F6AE] CRC32
16 83,7 [68171909] [14E77B6A] CRC32
17 82,4 [A21FE11C] [F44BA111] CRC32
18 82,2 [7E005F5D] [0C32ECDE] CRC32

Thanks to robman62

See also: