Subcategories

Duke Ellington & His Orchestra - Happy Birthday, Duke! Vol. 1-5 (1992)

Posted By: gribovar
Duke Ellington & His Orchestra - Happy Birthday, Duke! Vol. 1-5 (1992)

Duke Ellington & His Orchestra - Happy Birthday, Duke! Vol. 1-5 (1992)
EAC Rip | FLAC (tracks+.cue+log) - 1,28 GB | MP3 CBR 320 kbps (LAME 3.93) - 528 MB | Covers included
Genre: Jazz, Big Band, Swing | RAR 3% Rec. | Label: LaserLight Digital (15 783~7)

The liner notes neglect to mention in what year this April 29th birthday performance was recorded, but given the orchestra's lineup and set choices, 1953 or 1954 is likely. Unlike the majority of recently-discovered live tapes, this dance at Portland's McElroy's Ballroom was professionally recorded (by the great engineer Wally Heider) and so the sound is astonishing. This five-CD series is easily the best representation we have of Ellington's early-'50s lineup in an intimate ballroom dance setting.

Duke Ellington & His Orchestra - Happy Birthday, Duke! Vol. 1-5 (1992)

Duke Ellington & His Orchestra - Happy Birthday, Duke! Vol. 1 (1992)
EAC Rip | FLAC (tracks+.cue+log) - 241 MB | MP3 CBR 320 kbps (LAME 3.93) - 104 MB | Covers ( 5 MB) included
Genre: Jazz, Big Band, Swing | RAR 3% Rec. | Label: LaserLight Digital (15 783)

Tracklist:
01. Lullaby of Birdland
02. Time on My Hands (You in My Arms)
03. Don't Worry 'Bout Me
04. Take the "A" Train
05. Liza (All the Clouds'll Roll Away)
06. Creole Love Call
07. Boodah
08. Stomp, Look & Listen
09. Happy-Go-Lucky Local

Total time: 42:04

Exact Audio Copy V1.3 from 2. September 2016

EAC extraction logfile from 4. January 2017, 17:36

Duke Ellington and His Orchestra / Happy Birthday, Duke! Vol. 1

Used drive : TSSTcorpCDDVDW SE-208AB Adapter: 2 ID: 0

Read mode : Secure
Utilize accurate stream : Yes
Defeat audio cache : Yes
Make use of C2 pointers : No

Read offset correction : 6
Overread into Lead-In and Lead-Out : No
Fill up missing offset samples with silence : Yes
Delete leading and trailing silent blocks : No
Null samples used in CRC calculations : Yes
Used interface : Installed external ASPI interface
Gap handling : Appended to previous track

Used output format : User Defined Encoder
Selected bitrate : 768 kBit/s
Quality : High
Add ID3 tag : No
Command line compressor : C:\Program Files (x86)\Exact Audio Copy\Flac\flac.exe
Additional command line options : -8 -V -T "ARTIST=%artist%" -T "TITLE=%title%" -T "ALBUM=%albumtitle%" -T "DATE=%year%" -T "TRACKNUMBER=%tracknr%" -T "GENRE=%genre%" -T "COMMENT=%comment%" -T "BAND=%albuminterpret%" -T "ALBUMARTIST=%albuminterpret%" -T "COMPOSER=%composer%" %haslyrics%–tag-from-file=LYRICS="%lyricsfile%"%haslyrics% -T "DISCNUMBER=%cdnumber%" -T "TOTALDISCS=%totalcds%" -T "TOTALTRACKS=%numtracks%" %hascover%–picture="%coverfile%"%hascover% %source% -o %dest%


TOC of the extracted CD

Track | Start | Length | Start sector | End sector
––––––––––––––––––––––––––––-
1 | 0:00.37 | 3:06.28 | 37 | 14014
2 | 3:06.65 | 5:35.35 | 14015 | 39174
3 | 8:42.25 | 4:18.00 | 39175 | 58524
4 | 13:00.25 | 4:58.40 | 58525 | 80914
5 | 17:58.65 | 5:55.35 | 80915 | 107574
6 | 23:54.25 | 4:11.27 | 107575 | 126426
7 | 28:05.52 | 4:03.38 | 126427 | 144689
8 | 32:09.15 | 4:10.65 | 144690 | 163504
9 | 36:20.05 | 5:45.10 | 163505 | 189389


Track 1

Filename C:\Program Files (x86)\Exact Audio Copy\Flac\01. Lullaby of Birdland.wav

Pre-gap length 0:00:02.37

Peak level 74.9 %
Extraction speed 2.4 X
Track quality 100.0 %
Test CRC 9BB2B41D
Copy CRC 9BB2B41D
Accurately ripped (confidence 7) [DF4F39CE] (AR v2)
Copy OK

Track 2

Filename C:\Program Files (x86)\Exact Audio Copy\Flac\02. Time On My Hands.wav

Pre-gap length 0:00:04.37

Peak level 66.7 %
Extraction speed 2.9 X
Track quality 100.0 %
Test CRC 8B07F8FE
Copy CRC 8B07F8FE
Accurately ripped (confidence 7) [F266716B] (AR v2)
Copy OK

Track 3

Filename C:\Program Files (x86)\Exact Audio Copy\Flac\03. Don't Worry 'bout Me.wav

Pre-gap length 0:00:03.70

Peak level 75.3 %
Extraction speed 3.1 X
Track quality 100.0 %
Test CRC 427515A3
Copy CRC 427515A3
Accurately ripped (confidence 7) [275B6D81] (AR v2)
Copy OK

Track 4

Filename C:\Program Files (x86)\Exact Audio Copy\Flac\04. Take the ''A'' Train.wav

Pre-gap length 0:00:03.50

Peak level 60.8 %
Extraction speed 3.4 X
Track quality 100.0 %
Test CRC 04F5BE2B
Copy CRC 04F5BE2B
Accurately ripped (confidence 7) [1644BB50] (AR v2)
Copy OK

Track 5

Filename C:\Program Files (x86)\Exact Audio Copy\Flac\05. Liza.wav

Peak level 73.8 %
Extraction speed 3.8 X
Track quality 100.0 %
Test CRC 6DE26EA0
Copy CRC 6DE26EA0
Accurately ripped (confidence 7) [BCA904A2] (AR v2)
Copy OK

Track 6

Filename C:\Program Files (x86)\Exact Audio Copy\Flac\06. Creole Love Call.wav

Pre-gap length 0:00:03.40

Peak level 70.4 %
Extraction speed 3.9 X
Track quality 100.0 %
Test CRC 77720B4D
Copy CRC 77720B4D
Accurately ripped (confidence 7) [920C51DB] (AR v2)
Copy OK

Track 7

Filename C:\Program Files (x86)\Exact Audio Copy\Flac\07. Boodah.wav

Pre-gap length 0:00:03.30

Peak level 73.6 %
Extraction speed 4.1 X
Track quality 100.0 %
Test CRC 7B2AF73A
Copy CRC 7B2AF73A
Accurately ripped (confidence 7) [A7E38BBA] (AR v2)
Copy OK

Track 8

Filename C:\Program Files (x86)\Exact Audio Copy\Flac\08. Stomp, Look & Listen.wav

Pre-gap length 0:00:03.12

Peak level 75.8 %
Extraction speed 4.2 X
Track quality 100.0 %
Test CRC FA24C088
Copy CRC FA24C088
Accurately ripped (confidence 7) [861DEED6] (AR v2)
Copy OK

Track 9

Filename C:\Program Files (x86)\Exact Audio Copy\Flac\09. Happy-Go-Lucky Local.wav

Pre-gap length 0:00:04.05

Peak level 75.2 %
Extraction speed 4.6 X
Track quality 100.0 %
Test CRC 2D5C11C2
Copy CRC 2D5C11C2
Accurately ripped (confidence 7) [BA1DE78E] (AR v2)
Copy OK


All tracks accurately ripped

No errors occurred

End of status report

–– CUETools DB Plugin V2.1.6

[CTDB TOCID: xZkH4LeesBKeNRqLUOS5zSAwaQU-] found
Submit result: xZkH4LeesBKeNRqLUOS5zSAwaQU- has been confirmed
Track | CTDB Status
1 | (4/4) Accurately ripped
2 | (4/4) Accurately ripped
3 | (4/4) Accurately ripped
4 | (4/4) Accurately ripped
5 | (4/4) Accurately ripped
6 | (4/4) Accurately ripped
7 | (4/4) Accurately ripped
8 | (4/4) Accurately ripped
9 | (4/4) Accurately ripped


==== Log checksum F3B1844C3EE6352B013B677446BE88F1DDFC02D30438F751B600C9B7FF829BB5 ====

[CUETools log; Date: 13.07.2018 20:23:04; Version: 2.1.4]
Pregap length 00:00:37.
[CTDB TOCID: xZkH4LeesBKeNRqLUOS5zSAwaQU-] found.
Track | CTDB Status
1 | (13/13) Accurately ripped
2 | (13/13) Accurately ripped
3 | (12/13) Accurately ripped
4 | (12/13) Accurately ripped
5 | (12/13) Accurately ripped
6 | (13/13) Accurately ripped
7 | (12/13) Accurately ripped
8 | (13/13) Accurately ripped
9 | (13/13) Accurately ripped
[AccurateRip ID: 000e1a5e-006855a7-7709dd09] found.
Track [ CRC | V2 ] Status
01 [cd73043d|df4f39ce] (05+09/17) Accurately ripped
02 [06f7b8ab|f266716b] (05+09/17) Accurately ripped
03 [86dba528|275b6d81] (05+09/17) Accurately ripped
04 [6f06440f|1644bb50] (05+09/17) Accurately ripped
05 [108ea367|bca904a2] (05+09/17) Accurately ripped
06 [f53d42ab|920c51db] (05+09/17) Accurately ripped
07 [dd801612|a7e38bba] (05+09/17) Accurately ripped
08 [f20b00dd|861deed6] (05+09/17) Accurately ripped
09 [d2bc3310|ba1de78e] (05+09/17) Accurately ripped
Offsetted by -901:
01 [fa5f0a22] (00/17) No match (V2 was not tested)
02 [a83b6716] (00/17) No match (V2 was not tested)
03 [fb5c57b7] (00/17) No match (V2 was not tested)
04 [1acda761] (00/17) No match (V2 was not tested)
05 [866bfcef] (00/17) No match (V2 was not tested)
06 [7e118daf] (00/17) No match (V2 was not tested)
07 [9739b987] (00/17) No match (V2 was not tested)
08 [70d0d278] (00/17) No match (V2 was not tested)
09 [e447aea4] (00/17) No match (V2 was not tested)

Track Peak [ CRC32 ] [W/O NULL] [ LOG ]
– 75,8 [DF79AC6F] [FD9C8DF4]
01 74,9 [9BB2B41D] [5B02D340] CRC32
02 66,7 [8B07F8FE] [9BBEC88C] CRC32
03 75,3 [427515A3] [39280546] CRC32
04 60,8 [04F5BE2B] [17E58070] CRC32
05 73,8 [6DE26EA0] [C4FE017F] CRC32
06 70,4 [77720B4D] [C1BA6485] CRC32
07 73,6 [7B2AF73A] [9F6A1A28] CRC32
08 75,8 [FA24C088] [D04A6988] CRC32
09 75,2 [2D5C11C2] [8DB2E222] CRC32

Duke Ellington & His Orchestra - Happy Birthday, Duke! Vol. 1-5 (1992)

Duke Ellington & His Orchestra - Happy Birthday, Duke! Vol. 2 (1992)
EAC Rip | FLAC (tracks+.cue+log) - 276 MB | MP3 CBR 320 kbps (LAME 3.93) - 115 MB | Covers ( 5 MB) included
Genre: Jazz, Big Band, Swing | RAR 3% Rec. | Label: LaserLight Digital (15 784)

Tracklist:
01. Summertime
02. Warm Valley
03. Sultry Serenade
04. Hy-Ah Sue
05. Sophisticated Lady
06. I Let a Song Go Out of My Heart/Don't Get Around Much Anymore
07. Just Squeeze Me (But Don't Tease Me)
08. Caravan
09. Perdido
10. Without a Song

Total time: 46:37

Exact Audio Copy V1.3 from 2. September 2016

EAC extraction logfile from 4. January 2017, 18:08

Duke Ellington Orchestra / Happy Birthday Duke! Vol.2

Used drive : TSSTcorpCDDVDW SE-208AB Adapter: 2 ID: 0

Read mode : Secure
Utilize accurate stream : Yes
Defeat audio cache : Yes
Make use of C2 pointers : No

Read offset correction : 6
Overread into Lead-In and Lead-Out : No
Fill up missing offset samples with silence : Yes
Delete leading and trailing silent blocks : No
Null samples used in CRC calculations : Yes
Used interface : Installed external ASPI interface
Gap handling : Appended to previous track

Used output format : User Defined Encoder
Selected bitrate : 768 kBit/s
Quality : High
Add ID3 tag : No
Command line compressor : C:\Program Files (x86)\Exact Audio Copy\Flac\flac.exe
Additional command line options : -8 -V -T "ARTIST=%artist%" -T "TITLE=%title%" -T "ALBUM=%albumtitle%" -T "DATE=%year%" -T "TRACKNUMBER=%tracknr%" -T "GENRE=%genre%" -T "COMMENT=%comment%" -T "BAND=%albuminterpret%" -T "ALBUMARTIST=%albuminterpret%" -T "COMPOSER=%composer%" %haslyrics%–tag-from-file=LYRICS="%lyricsfile%"%haslyrics% -T "DISCNUMBER=%cdnumber%" -T "TOTALDISCS=%totalcds%" -T "TOTALTRACKS=%numtracks%" %hascover%–picture="%coverfile%"%hascover% %source% -o %dest%


TOC of the extracted CD

Track | Start | Length | Start sector | End sector
––––––––––––––––––––––––––––-
1 | 0:00.00 | 2:29.10 | 0 | 11184
2 | 2:29.10 | 4:40.15 | 11185 | 32199
3 | 7:09.25 | 4:10.00 | 32200 | 50949
4 | 11:19.25 | 8:01.10 | 50950 | 87034
5 | 19:20.35 | 5:25.70 | 87035 | 111479
6 | 24:46.30 | 3:59.10 | 111480 | 129414
7 | 28:45.40 | 4:14.18 | 129415 | 148482
8 | 32:59.58 | 4:27.12 | 148483 | 168519
9 | 37:26.70 | 5:18.18 | 168520 | 192387
10 | 42:45.13 | 3:52.40 | 192388 | 209827


Track 1

Filename C:\Program Files (x86)\Exact Audio Copy\Flac\01. Summertime.wav

Pre-gap length 0:00:02.00

Peak level 75.5 %
Extraction speed 2.5 X
Track quality 100.0 %
Test CRC AFDBAAF0
Copy CRC AFDBAAF0
Accurately ripped (confidence 1) [53BE2539] (AR v2)
Copy OK

Track 2

Filename C:\Program Files (x86)\Exact Audio Copy\Flac\02. Warm Valley.wav

Pre-gap length 0:00:02.30

Peak level 71.0 %
Extraction speed 2.6 X
Track quality 99.9 %
Test CRC DAA459B8
Copy CRC DAA459B8
Accurately ripped (confidence 1) [7C141160] (AR v2)
Copy OK

Track 3

Filename C:\Program Files (x86)\Exact Audio Copy\Flac\03. Sultry Serenade.wav

Peak level 76.4 %
Extraction speed 2.7 X
Track quality 99.9 %
Test CRC 0463E052
Copy CRC 0463E052
Accurately ripped (confidence 1) [641591DC] (AR v2)
Copy OK

Track 4

Filename C:\Program Files (x86)\Exact Audio Copy\Flac\04. Hy-Ah, Sue.wav

Pre-gap length 0:00:03.17

Peak level 74.6 %
Extraction speed 3.9 X
Track quality 100.0 %
Test CRC 1E4D1399
Copy CRC 1E4D1399
Accurately ripped (confidence 1) [3212AE30] (AR v2)
Copy OK

Track 5

Filename C:\Program Files (x86)\Exact Audio Copy\Flac\05. Sophisticated Lady.wav

Pre-gap length 0:00:02.10

Peak level 73.2 %
Extraction speed 4.1 X
Track quality 100.0 %
Test CRC E0E35EAD
Copy CRC E0E35EAD
Accurately ripped (confidence 1) [98C009F2] (AR v2)
Copy OK

Track 6

Filename C:\Program Files (x86)\Exact Audio Copy\Flac\06. I Let A Song Go Out Of My Heart , Don't Get Around Much Anymore.wav

Pre-gap length 0:00:03.57

Peak level 78.8 %
Extraction speed 4.2 X
Track quality 100.0 %
Test CRC 3975D3CC
Copy CRC 3975D3CC
Accurately ripped (confidence 1) [90C39DD8] (AR v2)
Copy OK

Track 7

Filename C:\Program Files (x86)\Exact Audio Copy\Flac\07. Just Squeeze Me.wav

Peak level 79.9 %
Extraction speed 4.4 X
Track quality 100.0 %
Test CRC 70D2D358
Copy CRC 70D2D358
Accurately ripped (confidence 1) [79B6C9A9] (AR v2)
Copy OK

Track 8

Filename C:\Program Files (x86)\Exact Audio Copy\Flac\08. Caravan.wav

Peak level 77.8 %
Extraction speed 4.5 X
Track quality 100.0 %
Test CRC E6610CFE
Copy CRC E6610CFE
Accurately ripped (confidence 1) [9065AFC1] (AR v2)
Copy OK

Track 9

Filename C:\Program Files (x86)\Exact Audio Copy\Flac\09. Perdido.wav

Peak level 75.7 %
Extraction speed 4.9 X
Track quality 100.0 %
Test CRC B306D9C2
Copy CRC B306D9C2
Accurately ripped (confidence 1) [DC8F21F5] (AR v2)
Copy OK

Track 10

Filename C:\Program Files (x86)\Exact Audio Copy\Flac\10. Without A Song.wav

Pre-gap length 0:00:03.37

Peak level 75.1 %
Extraction speed 4.9 X
Track quality 100.0 %
Test CRC EC87EF18
Copy CRC EC87EF18
Accurately ripped (confidence 1) [B15FA1BB] (AR v2)
Copy OK


All tracks accurately ripped

No errors occurred

End of status report

–– CUETools DB Plugin V2.1.6

[CTDB TOCID: GWqcwvUPnkoWKQ6wq14vzlHDfQQ-] found
Submit result: GWqcwvUPnkoWKQ6wq14vzlHDfQQ- has been confirmed
Track | CTDB Status
1 | (3/3) Accurately ripped
2 | (3/3) Accurately ripped
3 | (3/3) Accurately ripped
4 | (3/3) Accurately ripped
5 | (3/3) Accurately ripped
6 | (3/3) Accurately ripped
7 | (3/3) Accurately ripped
8 | (3/3) Accurately ripped
9 | (3/3) Accurately ripped
10 | (3/3) Accurately ripped


==== Log checksum 80998DBFDAFC233E2E7B5688370B0A91F3313585A6D72F9BCD4B8118A0E116EF ====

[CUETools log; Date: 13.07.2018 20:23:34; Version: 2.1.4]
[CTDB TOCID: GWqcwvUPnkoWKQ6wq14vzlHDfQQ-] found.
Track | CTDB Status
1 | (9/9) Accurately ripped
2 | (9/9) Accurately ripped
3 | (9/9) Accurately ripped
4 | (9/9) Accurately ripped
5 | (9/9) Accurately ripped
6 | (9/9) Accurately ripped
7 | (9/9) Accurately ripped
8 | (9/9) Accurately ripped
9 | (9/9) Accurately ripped
10 | (9/9) Accurately ripped
[AccurateRip ID: 00116aec-008d700f-870aed0a] found.
Track [ CRC | V2 ] Status
01 [61b25130|53be2539] (0+2/2) Accurately ripped
02 [e7c15859|7c141160] (0+2/2) Accurately ripped
03 [1806100c|641591dc] (0+2/2) Accurately ripped
04 [d3ff99c2|3212ae30] (0+2/2) Accurately ripped
05 [e45a2b78|98c009f2] (0+2/2) Accurately ripped
06 [ba239b08|90c39dd8] (0+2/2) Accurately ripped
07 [98efa770|79b6c9a9] (0+2/2) Accurately ripped
08 [63abc5e7|9065afc1] (0+2/2) Accurately ripped
09 [ff184dbe|dc8f21f5] (0+2/2) Accurately ripped
10 [e3fbc866|b15fa1bb] (0+2/2) Accurately ripped

Track Peak [ CRC32 ] [W/O NULL] [ LOG ]
– 79,9 [B254ECF4] [BBC42AF3]
01 75,5 [AFDBAAF0] [123F3AEA] CRC32
02 71,0 [DAA459B8] [0FDC9F22] CRC32
03 76,4 [0463E052] [C01354F5] CRC32
04 74,6 [1E4D1399] [82D9AAF5] CRC32
05 73,2 [E0E35EAD] [C2BC98FC] CRC32
06 78,8 [3975D3CC] [84CCF2C7] CRC32
07 79,9 [70D2D358] [35F0A8F6] CRC32
08 77,8 [E6610CFE] [4C101EAE] CRC32
09 75,7 [B306D9C2] [56F838EB] CRC32
10 75,1 [EC87EF18] [F9604D58] CRC32

Duke Ellington & His Orchestra - Happy Birthday, Duke! Vol. 1-5 (1992)

Duke Ellington & His Orchestra - Happy Birthday, Duke! Vol. 3 (1992)
EAC Rip | FLAC (tracks+.cue+log) - 293 MB | MP3 CBR 320 kbps (LAME 3.93) - 116 MB | Covers ( 5 MB) included
Genre: Jazz, Big Band, Swing | RAR 3% Rec. | Label: LaserLight Digital (15 785)

Tracklist:
01. Things Ain't What They Used to Be
02. The Hawk Talks
03. C Jam Blues
04. Tenderly
05. All the Things You Are
06. Solitude
07. She Moved
08. Happy Birthday to You
09. Mood Indigo
10. Trumpet No End (Blue Skies)
11. Take the "A" Train

Total time: 47:14

Exact Audio Copy V1.3 from 2. September 2016

EAC extraction logfile from 4. January 2017, 18:48

Duke Ellington / Happy Birthday Duke! Vol.3

Used drive : TSSTcorpCDDVDW SE-208AB Adapter: 2 ID: 0

Read mode : Secure
Utilize accurate stream : Yes
Defeat audio cache : Yes
Make use of C2 pointers : No

Read offset correction : 6
Overread into Lead-In and Lead-Out : No
Fill up missing offset samples with silence : Yes
Delete leading and trailing silent blocks : No
Null samples used in CRC calculations : Yes
Used interface : Installed external ASPI interface
Gap handling : Appended to previous track

Used output format : User Defined Encoder
Selected bitrate : 768 kBit/s
Quality : High
Add ID3 tag : No
Command line compressor : C:\Program Files (x86)\Exact Audio Copy\Flac\flac.exe
Additional command line options : -8 -V -T "ARTIST=%artist%" -T "TITLE=%title%" -T "ALBUM=%albumtitle%" -T "DATE=%year%" -T "TRACKNUMBER=%tracknr%" -T "GENRE=%genre%" -T "COMMENT=%comment%" -T "BAND=%albuminterpret%" -T "ALBUMARTIST=%albuminterpret%" -T "COMPOSER=%composer%" %haslyrics%–tag-from-file=LYRICS="%lyricsfile%"%haslyrics% -T "DISCNUMBER=%cdnumber%" -T "TOTALDISCS=%totalcds%" -T "TOTALTRACKS=%numtracks%" %hascover%–picture="%coverfile%"%hascover% %source% -o %dest%


TOC of the extracted CD

Track | Start | Length | Start sector | End sector
––––––––––––––––––––––––––––-
1 | 0:00.00 | 8:16.05 | 0 | 37204
2 | 8:16.05 | 3:28.00 | 37205 | 52804
3 | 11:44.05 | 5:10.38 | 52805 | 76092
4 | 16:54.43 | 3:42.57 | 76093 | 92799
5 | 20:37.25 | 5:15.05 | 92800 | 116429
6 | 25:52.30 | 2:24.08 | 116430 | 127237
7 | 28:16.38 | 7:38.45 | 127238 | 161632
8 | 35:55.08 | 0:31.57 | 161633 | 164014
9 | 36:26.65 | 5:55.00 | 164015 | 190639
10 | 42:21.65 | 3:45.30 | 190640 | 207544
11 | 46:07.20 | 1:06.30 | 207545 | 212524


Track 1

Filename C:\Program Files (x86)\Exact Audio Copy\Flac\01. Things Ain't What They Used To Be.wav

Pre-gap length 0:00:02.00

Peak level 75.5 %
Extraction speed 3.2 X
Track quality 100.0 %
Test CRC 76C5ABC3
Copy CRC 76C5ABC3
Accurately ripped (confidence 1) [0C5DF8A8] (AR v2)
Copy OK

Track 2

Filename C:\Program Files (x86)\Exact Audio Copy\Flac\02. The Hawk Talks.wav

Pre-gap length 0:00:03.17

Peak level 75.3 %
Extraction speed 3.3 X
Track quality 100.0 %
Test CRC 94F880CD
Copy CRC 94F880CD
Accurately ripped (confidence 1) [FF1EEC32] (AR v2)
Copy OK

Track 3

Filename C:\Program Files (x86)\Exact Audio Copy\Flac\03. C Jam Blues.wav

Pre-gap length 0:00:01.53

Peak level 78.6 %
Extraction speed 3.7 X
Track quality 100.0 %
Test CRC 2DCBB075
Copy CRC 2DCBB075
Accurately ripped (confidence 1) [1FD69F4B] (AR v2)
Copy OK

Track 4

Filename C:\Program Files (x86)\Exact Audio Copy\Flac\04. Tenderly.wav

Pre-gap length 0:00:03.14

Peak level 76.4 %
Extraction speed 3.0 X
Track quality 99.9 %
Test CRC 1582B6BE
Copy CRC 1582B6BE
Accurately ripped (confidence 1) [393CE756] (AR v2)
Copy OK

Track 5

Filename C:\Program Files (x86)\Exact Audio Copy\Flac\05. All The Things You Are.wav

Peak level 76.0 %
Extraction speed 3.5 X
Track quality 99.9 %
Test CRC E93D58DD
Copy CRC E93D58DD
Accurately ripped (confidence 1) [8F80A440] (AR v2)
Copy OK

Track 6

Filename C:\Program Files (x86)\Exact Audio Copy\Flac\06. Solitude.wav

Pre-gap length 0:00:02.24

Peak level 73.5 %
Extraction speed 2.8 X
Track quality 99.9 %
Test CRC A820D3D6
Copy CRC A820D3D6
Accurately ripped (confidence 1) [EAFF9D68] (AR v2)
Copy OK

Track 7

Filename C:\Program Files (x86)\Exact Audio Copy\Flac\07. She Moved.wav

Pre-gap length 0:00:02.74

Peak level 74.3 %
Extraction speed 4.6 X
Track quality 100.0 %
Test CRC 78880746
Copy CRC 78880746
Accurately ripped (confidence 1) [1E8A9EB5] (AR v2)
Copy OK

Track 8

Filename C:\Program Files (x86)\Exact Audio Copy\Flac\08. Happy Birthday To You.wav

Pre-gap length 0:00:02.33

Peak level 95.3 %
Extraction speed 2.3 X
Track quality 100.0 %
Test CRC 2C667B22
Copy CRC 2C667B22
Accurately ripped (confidence 1) [498C119E] (AR v2)
Copy OK

Track 9

Filename C:\Program Files (x86)\Exact Audio Copy\Flac\09. Mood Indigo.wav

Peak level 100.0 %
Extraction speed 4.9 X
Track quality 100.0 %
Test CRC DD9C9E1E
Copy CRC DD9C9E1E
Accurately ripped (confidence 1) [16935E6B] (AR v2)
Copy OK

Track 10

Filename C:\Program Files (x86)\Exact Audio Copy\Flac\10. Trumpet No End.wav

Peak level 100.0 %
Extraction speed 3.9 X
Track quality 99.9 %
Test CRC 87F54E8D
Copy CRC 87F54E8D
Accurately ripped (confidence 1) [777F1F53] (AR v2)
Copy OK

Track 11

Filename C:\Program Files (x86)\Exact Audio Copy\Flac\11. Take The ''A'' Train.wav

Peak level 100.0 %
Extraction speed 2.2 X
Track quality 99.8 %
Test CRC 36FD56A2
Copy CRC 36FD56A2
Accurately ripped (confidence 1) [CCB1EF05] (AR v2)
Copy OK


All tracks accurately ripped

No errors occurred

End of status report

–– CUETools DB Plugin V2.1.6

[CTDB TOCID: 3h05xbu2iBtuh1ScqxDU5qE_QsA-] found
Submit result: 3h05xbu2iBtuh1ScqxDU5qE_QsA- has been confirmed
Track | CTDB Status
1 | (3/3) Accurately ripped
2 | (3/3) Accurately ripped
3 | (3/3) Accurately ripped
4 | (3/3) Accurately ripped
5 | (3/3) Accurately ripped
6 | (3/3) Accurately ripped
7 | (3/3) Accurately ripped
8 | (3/3) Accurately ripped
9 | (3/3) Accurately ripped
10 | (3/3) Accurately ripped
11 | (3/3) Accurately ripped


==== Log checksum 57BDF81BFD67D1D1674B8F0D7A49342D32D33ACD709C0EC2A3E8C9339ECF62FD ====

[CUETools log; Date: 13.07.2018 20:24:11; Version: 2.1.4]
[CTDB TOCID: 3h05xbu2iBtuh1ScqxDU5qE_QsA-] found.
Track | CTDB Status
1 | (12/12) Accurately ripped
2 | (12/12) Accurately ripped
3 | (12/12) Accurately ripped
4 | (12/12) Accurately ripped
5 | (12/12) Accurately ripped
6 | (12/12) Accurately ripped
7 | (12/12) Accurately ripped
8 | (12/12) Accurately ripped
9 | (12/12) Accurately ripped
10 | (12/12) Accurately ripped
11 | (12/12) Accurately ripped
[AccurateRip ID: 0015f4d1-00b89f0a-aa0b110b] found.
Track [ CRC | V2 ] Status
01 [37edfe06|0c5df8a8] (0+2/2) Accurately ripped
02 [7681ea86|ff1eec32] (0+2/2) Accurately ripped
03 [93da51ca|1fd69f4b] (0+2/2) Accurately ripped
04 [4792ecc7|393ce756] (0+2/2) Accurately ripped
05 [025afe72|8f80a440] (0+2/2) Accurately ripped
06 [c35fc362|eaff9d68] (0+2/2) Accurately ripped
07 [45f85d02|1e8a9eb5] (0+2/2) Accurately ripped
08 [af7d3989|498c119e] (0+2/2) Accurately ripped
09 [6bb88f67|16935e6b] (0+2/2) Accurately ripped
10 [764f87fc|777f1f53] (0+2/2) Accurately ripped
11 [6f15b018|ccb1ef05] (0+2/2) Accurately ripped

Track Peak [ CRC32 ] [W/O NULL] [ LOG ]
– 100,0 [13C8FD5C] [AA4BFFE0]
01 75,5 [76C5ABC3] [FD143BCF] CRC32
02 75,3 [94F880CD] [9CCE0CCD] CRC32
03 78,6 [2DCBB075] [ADF7B43F] CRC32
04 76,4 [1582B6BE] [5D20C2D6] CRC32
05 76,0 [E93D58DD] [B8773512] CRC32
06 73,5 [A820D3D6] [A5204B6A] CRC32
07 74,3 [78880746] [F94DD954] CRC32
08 95,3 [2C667B22] [D31C07ED] CRC32
09 100,0 [DD9C9E1E] [64FEDEEA] CRC32
10 100,0 [87F54E8D] [A3181F42] CRC32
11 100,0 [36FD56A2] [3E3595B2] CRC32

Duke Ellington & His Orchestra - Happy Birthday, Duke! Vol. 1-5 (1992)

Duke Ellington & His Orchestra - Happy Birthday, Duke! Vol. 4 (1992)
EAC Rip | FLAC (tracks+.cue+log) - 228 MB | MP3 CBR 320 kbps (LAME 3.93) - 96 MB | Covers ( 5 MB) included
Genre: Jazz, Big Band, Swing | RAR 3% Rec. | Label: LaserLight Digital (15 786)

Tracklist:
01. Coffee & Kisses
02. Johnny Come Lately
03. (Maybe I Should) Change My Ways
04. Primping at the Prom
05. Band Call
06. Satin Doll
07. Blue Jean Beguine
08. Tulip or Turnip (Tell Me, Tell Me, Dream Face)
09. Honeysuckle Rose
10. Theme for Trambeam
11. Blue Moon

Total time: 38:51

Exact Audio Copy V1.3 from 2. September 2016

EAC extraction logfile from 4. January 2017, 19:23

Duke Ellington / Happy Birthday Duke!, Vol. 4

Used drive : TSSTcorpCDDVDW SE-208AB Adapter: 2 ID: 0

Read mode : Secure
Utilize accurate stream : Yes
Defeat audio cache : Yes
Make use of C2 pointers : No

Read offset correction : 6
Overread into Lead-In and Lead-Out : No
Fill up missing offset samples with silence : Yes
Delete leading and trailing silent blocks : No
Null samples used in CRC calculations : Yes
Used interface : Installed external ASPI interface
Gap handling : Appended to previous track

Used output format : User Defined Encoder
Selected bitrate : 768 kBit/s
Quality : High
Add ID3 tag : No
Command line compressor : C:\Program Files (x86)\Exact Audio Copy\Flac\flac.exe
Additional command line options : -8 -V -T "ARTIST=%artist%" -T "TITLE=%title%" -T "ALBUM=%albumtitle%" -T "DATE=%year%" -T "TRACKNUMBER=%tracknr%" -T "GENRE=%genre%" -T "COMMENT=%comment%" -T "BAND=%albuminterpret%" -T "ALBUMARTIST=%albuminterpret%" -T "COMPOSER=%composer%" %haslyrics%–tag-from-file=LYRICS="%lyricsfile%"%haslyrics% -T "DISCNUMBER=%cdnumber%" -T "TOTALDISCS=%totalcds%" -T "TOTALTRACKS=%numtracks%" %hascover%–picture="%coverfile%"%hascover% %source% -o %dest%


TOC of the extracted CD

Track | Start | Length | Start sector | End sector
––––––––––––––––––––––––––––-
1 | 0:00.37 | 3:13.58 | 37 | 14569
2 | 3:14.20 | 2:46.00 | 14570 | 27019
3 | 6:00.20 | 3:32.20 | 27020 | 42939
4 | 9:32.40 | 2:39.05 | 42940 | 54869
5 | 12:11.45 | 3:40.17 | 54870 | 71386
6 | 15:51.62 | 3:17.35 | 71387 | 86196
7 | 19:09.22 | 3:36.43 | 86197 | 102439
8 | 22:45.65 | 3:07.32 | 102440 | 116496
9 | 25:53.22 | 5:12.68 | 116497 | 139964
10 | 31:06.15 | 2:55.35 | 139965 | 153124
11 | 34:01.50 | 4:50.45 | 153125 | 174919


Track 1

Filename C:\Program Files (x86)\Exact Audio Copy\Flac\01. Coffee & Kisses.wav

Pre-gap length 0:00:02.37

Peak level 100.0 %
Extraction speed 2.4 X
Track quality 100.0 %
Test CRC 43B951C8
Copy CRC 43B951C8
Accurately ripped (confidence 7) [9A4758EE] (AR v2)
Copy OK

Track 2

Filename C:\Program Files (x86)\Exact Audio Copy\Flac\02. Johnny Come Lately.wav

Pre-gap length 0:00:02.07

Peak level 87.5 %
Extraction speed 2.0 X
Track quality 99.9 %
Test CRC A9009715
Copy CRC A9009715
Accurately ripped (confidence 7) [DB31F6B7] (AR v2)
Copy OK

Track 3

Filename C:\Program Files (x86)\Exact Audio Copy\Flac\03. (Maybe I Should) Change My Ways.wav

Pre-gap length 0:00:03.02

Peak level 99.9 %
Extraction speed 2.9 X
Track quality 100.0 %
Test CRC 90704919
Copy CRC 90704919
Accurately ripped (confidence 7) [47075206] (AR v2)
Copy OK

Track 4

Filename C:\Program Files (x86)\Exact Audio Copy\Flac\04. Primping at the Prom.wav

Pre-gap length 0:00:04.35

Peak level 85.9 %
Extraction speed 2.8 X
Track quality 100.0 %
Test CRC 96CB0788
Copy CRC 96CB0788
Accurately ripped (confidence 7) [BBF73177] (AR v2)
Copy OK

Track 5

Filename C:\Program Files (x86)\Exact Audio Copy\Flac\05. Band Call.wav

Pre-gap length 0:00:03.60

Peak level 85.7 %
Extraction speed 3.2 X
Track quality 100.0 %
Test CRC 6FADA75B
Copy CRC 6FADA75B
Accurately ripped (confidence 7) [3EECE093] (AR v2)
Copy OK

Track 6

Filename C:\Program Files (x86)\Exact Audio Copy\Flac\06. Satin Doll.wav

Pre-gap length 0:00:03.32

Peak level 88.7 %
Extraction speed 3.4 X
Track quality 100.0 %
Test CRC 7DEF18B9
Copy CRC 7DEF18B9
Accurately ripped (confidence 7) [3067CE7E] (AR v2)
Copy OK

Track 7

Filename C:\Program Files (x86)\Exact Audio Copy\Flac\07. Blue Jean Beguine.wav

Pre-gap length 0:00:01.07

Peak level 91.8 %
Extraction speed 3.6 X
Track quality 100.0 %
Test CRC 7997EC7A
Copy CRC 7997EC7A
Accurately ripped (confidence 7) [7241F79B] (AR v2)
Copy OK

Track 8

Filename C:\Program Files (x86)\Exact Audio Copy\Flac\08. Tulip or Turnip (Tell Me, Tell Me, Dream Face).wav

Pre-gap length 0:00:03.02

Peak level 89.1 %
Extraction speed 3.6 X
Track quality 100.0 %
Test CRC F30B3DB1
Copy CRC F30B3DB1
Accurately ripped (confidence 7) [4ECAD51B] (AR v2)
Copy OK

Track 9

Filename C:\Program Files (x86)\Exact Audio Copy\Flac\09. Honeysuckle Rose.wav

Peak level 87.3 %
Extraction speed 4.0 X
Track quality 100.0 %
Test CRC B5806EC6
Copy CRC B5806EC6
Accurately ripped (confidence 7) [8EDA16F7] (AR v2)
Copy OK

Track 10

Filename C:\Program Files (x86)\Exact Audio Copy\Flac\10. Theme for Trambeam.wav

Pre-gap length 0:00:04.25

Peak level 86.9 %
Extraction speed 3.9 X
Track quality 100.0 %
Test CRC 6B545347
Copy CRC 6B545347
Accurately ripped (confidence 7) [13AE0026] (AR v2)
Copy OK

Track 11

Filename C:\Program Files (x86)\Exact Audio Copy\Flac\11. Blue Moon.wav

Pre-gap length 0:00:02.40

Peak level 85.0 %
Extraction speed 4.4 X
Track quality 100.0 %
Test CRC F486C839
Copy CRC F486C839
Accurately ripped (confidence 7) [7DF724D9] (AR v2)
Copy OK


All tracks accurately ripped

No errors occurred

End of status report

–– CUETools DB Plugin V2.1.6

[CTDB TOCID: o9W1aM7pxy2Ae57A92Dp_cvrBuQ-] found
Submit result: o9W1aM7pxy2Ae57A92Dp_cvrBuQ- has been confirmed, o9W1aM7pxy2Ae57A92Dp_cvrBuQ- has been confirmed
Track | CTDB Status
1 | (7/7) Accurately ripped
2 | (7/7) Accurately ripped
3 | (7/7) Accurately ripped
4 | (7/7) Accurately ripped
5 | (7/7) Accurately ripped
6 | (7/7) Accurately ripped
7 | (7/7) Accurately ripped
8 | (7/7) Accurately ripped
9 | (7/7) Accurately ripped
10 | (7/7) Accurately ripped
11 | (7/7) Accurately ripped


==== Log checksum 9DB8904B7F8E0B9727922F5B3FA845A7428DCA1DB91206D5A13DCC1553082942 ====

[CUETools log; Date: 13.07.2018 20:24:40; Version: 2.1.4]
Pregap length 00:00:37.
[CTDB TOCID: o9W1aM7pxy2Ae57A92Dp_cvrBuQ-] found.
Track | CTDB Status
1 | (19/19) Accurately ripped
2 | (19/19) Accurately ripped
3 | (19/19) Accurately ripped
4 | (19/19) Accurately ripped
5 | (19/19) Accurately ripped
6 | (19/19) Accurately ripped
7 | (19/19) Accurately ripped
8 | (19/19) Accurately ripped
9 | (19/19) Accurately ripped
10 | (19/19) Accurately ripped
11 | (19/19) Accurately ripped
[AccurateRip ID: 000f03a0-0083d282-94091c0b] found.
Track [ CRC | V2 ] Status
01 [a7d87ff8|9a4758ee] (03+08/20) Accurately ripped
02 [2f2db511|db31f6b7] (03+08/20) Accurately ripped
03 [810870fb|47075206] (03+08/20) Accurately ripped
04 [f1eb9227|bbf73177] (03+08/20) Accurately ripped
05 [dedd6d15|3eece093] (03+08/20) Accurately ripped
06 [0e470ced|3067ce7e] (03+08/20) Accurately ripped
07 [dafbf6ee|7241f79b] (03+08/20) Accurately ripped
08 [526c2b4f|4ecad51b] (03+08/20) Accurately ripped
09 [0b4be2a5|8eda16f7] (03+08/20) Accurately ripped
10 [6b74e625|13ae0026] (03+08/20) Accurately ripped
11 [fb079694|7df724d9] (03+08/20) Accurately ripped
Offsetted by -863:
01 [367d724b] (02/20) Accurately ripped
02 [c7f0270f] (02/20) Accurately ripped
03 [9a0e5ec5] (02/20) Accurately ripped
04 [1e7df4fc] (02/20) Accurately ripped
05 [6d11f853] (02/20) Accurately ripped
06 [e97c056e] (02/20) Accurately ripped
07 [9bef0ccb] (02/20) Accurately ripped
08 [52e41541] (02/20) Accurately ripped
09 [47b67bc8] (02/20) Accurately ripped
10 [6d61cf06] (02/20) Accurately ripped
11 [16f762e4] (02/20) Accurately ripped

Track Peak [ CRC32 ] [W/O NULL] [ LOG ]
– 100,0 [1AF0B1A7] [805AA5ED]
01 100,0 [43B951C8] [3B3F83BE] CRC32
02 87,5 [A9009715] [6F62145D] CRC32
03 99,9 [90704919] [0C383188] CRC32
04 85,9 [96CB0788] [4A5E8D32] CRC32
05 85,7 [6FADA75B] [F74DB8B9] CRC32
06 88,7 [7DEF18B9] [22EC7750] CRC32
07 91,8 [7997EC7A] [FFFD9F62] CRC32
08 89,1 [F30B3DB1] [0E48606D] CRC32
09 87,3 [B5806EC6] [8C01AEFA] CRC32
10 86,8 [6B545347] [79EF3E2D] CRC32
11 85,0 [F486C839] [0A67654E] CRC32

Duke Ellington & His Orchestra - Happy Birthday, Duke! Vol. 1-5 (1992)

Duke Ellington & His Orchestra - Happy Birthday, Duke! Vol. 5 (1992)
EAC Rip | FLAC (tracks+.cue+log) - 243 MB | MP3 CBR 320 kbps (LAME 3.93) - 97 MB | Covers ( 5 MB) included
Genre: Jazz, Big Band, Swing | RAR 3% Rec. | Label: LaserLight Digital (15 787)

Tracklist:
01. V.I.P.'s Boogie
02. Jam with Sam
03. Bunny Hop Mambo
04. Isle of Capri
05. Take the "A" Train (vocal)
06. Take the "A" Train (instrumental)
07. Flamingo
08. I Got It Bad, and That A'int Good/I'm Just a Lucky So-and-So
09. Ballin' the Blues
10. Satin Doll

Total time: 39:00

Exact Audio Copy V1.3 from 2. September 2016

EAC extraction logfile from 4. January 2017, 21:00

Duke Ellington and His Orchestra / Happy Birthday, Duke Vol. 5

Used drive : TSSTcorpCDDVDW SE-208AB Adapter: 2 ID: 0

Read mode : Secure
Utilize accurate stream : Yes
Defeat audio cache : Yes
Make use of C2 pointers : No

Read offset correction : 6
Overread into Lead-In and Lead-Out : No
Fill up missing offset samples with silence : Yes
Delete leading and trailing silent blocks : No
Null samples used in CRC calculations : Yes
Used interface : Installed external ASPI interface
Gap handling : Appended to previous track

Used output format : User Defined Encoder
Selected bitrate : 768 kBit/s
Quality : High
Add ID3 tag : No
Command line compressor : C:\Program Files (x86)\Exact Audio Copy\Flac\flac.exe
Additional command line options : -8 -V -T "ARTIST=%artist%" -T "TITLE=%title%" -T "ALBUM=%albumtitle%" -T "DATE=%year%" -T "TRACKNUMBER=%tracknr%" -T "GENRE=%genre%" -T "COMMENT=%comment%" -T "BAND=%albuminterpret%" -T "ALBUMARTIST=%albuminterpret%" -T "COMPOSER=%composer%" %haslyrics%–tag-from-file=LYRICS="%lyricsfile%"%haslyrics% -T "DISCNUMBER=%cdnumber%" -T "TOTALDISCS=%totalcds%" -T "TOTALTRACKS=%numtracks%" %hascover%–picture="%coverfile%"%hascover% %source% -o %dest%


TOC of the extracted CD

Track | Start | Length | Start sector | End sector
––––––––––––––––––––––––––––-
1 | 0:00.37 | 2:52.13 | 37 | 12949
2 | 2:52.50 | 4:03.50 | 12950 | 31224
3 | 6:56.25 | 3:59.00 | 31225 | 49149
4 | 10:55.25 | 3:38.72 | 49150 | 65571
5 | 14:34.22 | 3:51.40 | 65572 | 82936
6 | 18:25.62 | 3:35.35 | 82937 | 99096
7 | 22:01.22 | 2:59.23 | 99097 | 112544
8 | 25:00.45 | 3:44.70 | 112545 | 129414
9 | 28:45.40 | 9:19.42 | 129415 | 171381
10 | 38:05.07 | 0:54.53 | 171382 | 175484


Track 1

Filename C:\Program Files (x86)\Exact Audio Copy\Flac\01. V.I.P.'s Boogie.wav

Pre-gap length 0:00:02.37

Peak level 97.4 %
Extraction speed 2.3 X
Track quality 100.0 %
Test CRC 0EDED7E0
Copy CRC 0EDED7E0
Track not present in AccurateRip database
Copy OK

Track 2

Filename C:\Program Files (x86)\Exact Audio Copy\Flac\02. Jam With Sam.wav

Pre-gap length 0:00:04.67

Peak level 99.7 %
Extraction speed 2.3 X
Track quality 99.9 %
Test CRC EDA97325
Copy CRC EDA97325
Track not present in AccurateRip database
Copy OK

Track 3

Filename C:\Program Files (x86)\Exact Audio Copy\Flac\03. Bunny Hop Mambo.wav

Pre-gap length 0:00:02.17

Peak level 92.5 %
Extraction speed 3.0 X
Track quality 100.0 %
Test CRC 16A226F0
Copy CRC 16A226F0
Track not present in AccurateRip database
Copy OK

Track 4

Filename C:\Program Files (x86)\Exact Audio Copy\Flac\04. Isle of Capri.wav

Pre-gap length 0:00:03.07

Peak level 94.5 %
Extraction speed 3.2 X
Track quality 100.0 %
Test CRC E9FB3BB1
Copy CRC E9FB3BB1
Track not present in AccurateRip database
Copy OK

Track 5

Filename C:\Program Files (x86)\Exact Audio Copy\Flac\05. Take the ''A'' Train.wav

Pre-gap length 0:00:03.47

Peak level 97.6 %
Extraction speed 3.3 X
Track quality 100.0 %
Test CRC D27CA9DA
Copy CRC D27CA9DA
Track not present in AccurateRip database
Copy OK

Track 6

Filename C:\Program Files (x86)\Exact Audio Copy\Flac\06. Take the ''A'' Train.wav

Peak level 96.3 %
Extraction speed 2.8 X
Track quality 99.9 %
Test CRC CB3868CD
Copy CRC CB3868CD
Track not present in AccurateRip database
Copy OK

Track 7

Filename C:\Program Files (x86)\Exact Audio Copy\Flac\07. Flamingo.wav

Pre-gap length 0:00:02.17

Peak level 96.2 %
Extraction speed 3.6 X
Track quality 100.0 %
Test CRC BA761C4F
Copy CRC BA761C4F
Track not present in AccurateRip database
Copy OK

Track 8

Filename C:\Program Files (x86)\Exact Audio Copy\Flac\08. I Got It Bad, And That A'int Good , I'm Just a Lucky So-And-So.wav

Pre-gap length 0:00:04.10

Peak level 91.0 %
Extraction speed 3.8 X
Track quality 100.0 %
Test CRC EAC032D3
Copy CRC EAC032D3
Track not present in AccurateRip database
Copy OK

Track 9

Filename C:\Program Files (x86)\Exact Audio Copy\Flac\09. Ballin' The Blues.wav

Pre-gap length 0:00:02.37

Peak level 94.6 %
Extraction speed 4.5 X
Track quality 100.0 %
Test CRC 99526852
Copy CRC 99526852
Track not present in AccurateRip database
Copy OK

Track 10

Filename C:\Program Files (x86)\Exact Audio Copy\Flac\10. Satin Doll.wav

Peak level 87.7 %
Extraction speed 2.9 X
Track quality 100.0 %
Test CRC A5EDA7A9
Copy CRC A5EDA7A9
Track not present in AccurateRip database
Copy OK


None of the tracks are present in the AccurateRip database

No errors occurred

End of status report

–– CUETools DB Plugin V2.1.6

[CTDB TOCID: 9Dj.DleWIrrsty_w08u3OuySlbo-] found
Submit result: 9Dj.DleWIrrsty_w08u3OuySlbo- has been confirmed
Track | CTDB Status
1 | (4/4) Accurately ripped
2 | (4/4) Accurately ripped
3 | (4/4) Accurately ripped
4 | (4/4) Accurately ripped
5 | (4/4) Accurately ripped
6 | (4/4) Accurately ripped
7 | (4/4) Accurately ripped
8 | (4/4) Accurately ripped
9 | (4/4) Accurately ripped
10 | (4/4) Accurately ripped


==== Log checksum 7FD354F0069B3F31936DA4AF6307D11B2241FC1F62AE1AB6991B4C2BD71A1F56 ====

[CUETools log; Date: 13.07.2018 20:25:26; Version: 2.1.4]
Pregap length 00:00:37.
[CTDB TOCID: 9Dj.DleWIrrsty_w08u3OuySlbo-] found.
Track | CTDB Status
1 | (10/10) Accurately ripped
2 | (10/10) Accurately ripped
3 | (10/10) Accurately ripped
4 | (10/10) Accurately ripped
5 | (10/10) Accurately ripped
6 | (10/10) Accurately ripped
7 | (10/10) Accurately ripped
8 | (10/10) Accurately ripped
9 | (10/10) Accurately ripped
10 | (10/10) Accurately ripped
[AccurateRip ID: 000e3003-00731f2f-8009230a] found.
Track [ CRC | V2 ] Status
01 [a4734df9|357f4659] (05+11/16) Accurately ripped
02 [697882c1|54b1dc6f] (05+11/16) Accurately ripped
03 [63a685b0|8961924e] (05+11/16) Accurately ripped
04 [55269b12|ce037437] (05+11/16) Accurately ripped
05 [b3286f61|1eaf367c] (05+11/16) Accurately ripped
06 [92576838|f49f081c] (05+11/16) Accurately ripped
07 [0216bea9|d7711bb6] (05+11/16) Accurately ripped
08 [ad5ccc20|fa1b51b6] (05+11/16) Accurately ripped
09 [7d10f06f|7e3700bc] (05+11/16) Accurately ripped
10 [fb9e2e9f|7ba4412c] (05+11/16) Accurately ripped

Track Peak [ CRC32 ] [W/O NULL] [ LOG ]
– 99,7 [40CA6A4D] [F46532BC]
01 97,4 [0EDED7E0] [027113CB] CRC32
02 99,7 [EDA97325] [65D2D2EC] CRC32
03 92,5 [16A226F0] [63B50146] CRC32
04 94,5 [E9FB3BB1] [93017E4A] CRC32
05 97,6 [D27CA9DA] [24899831] CRC32
06 96,3 [CB3868CD] [ADB1B5A1] CRC32
07 96,2 [BA761C4F] [17CEFDDD] CRC32
08 91,0 [EAC032D3] [7E82182F] CRC32
09 94,6 [99526852] [809BF1C1] CRC32
10 87,7 [A5EDA7A9] [A0462DB6] CRC32

Thanks Olivierito

See also: