Subcategories

Emerson, Lake & Palmer - Emerson, Lake & Palmer (1970) [Japan Press, 1988]

Posted By: Andi_Deris
Emerson, Lake & Palmer - Emerson, Lake & Palmer (1970) [Japan Press, 1988]

Emerson, Lake & Palmer - Emerson, Lake & Palmer (1970) [Japan Press, 1988]
EAC Rip | FLAC: Image+Cue+Log | MP3 CBR 320 kbps | Scans
258 Mb | 96 Mb | 35 Mb | Time: 41:31
Warner-Pioneer Corporation | 20P2-2048
Progressive Rock, Art Rock, Symphonic Prog

Emerson, Lake & Palmer is the debut album by the English progressive rock band Emerson, Lake & Palmer, released in the UK in November 1970 on Island Records (catalog no. ILPS 9132). The album's initial North American release was several weeks later, in January 1971, on Atlantic Records' Cotillion Records subsidiary (catalog no. SD 9040). Recording took place at Advision Studios in July 1970 when the group had yet to perform live, and lasted for three months. The album was supported by the group's show at the 1970 Isle of Wight Festival.

Emerson, Lake & Palmer went to number four on the UK Albums Chart and number 18 on the Billboard 200 in the US. "Lucky Man" reached number 48 on the Billboard Hot 100 singles chart in the US.

Emerson, Lake & Palmer - Emerson, Lake & Palmer (1970) [Japan Press, 1988]




Emerson, Lake & Palmer - Emerson, Lake & Palmer (1970) [Japan Press, 1988]


Track Listing

01. The Barbarian (04:34)
02. Take A Pebble (012:34)
03. Knife Edge (05:08)
a) Clotho (Royal Festival Hall Organ)
b) Lachesis (Piano Solo)
c) Atropos (Piano Solo)

04. The Three Fates (07:45)
05. Tank (06:52)
06. Lucky Man (04:38)

Produced by Greg Lake

Personnel

• Keith Emerson - Hammond organ, piano, clavinet, pipe organ, Moog modular synthesizer
• Greg Lake - vocals, bass, acoustic and electric guitar
• Carl Palmer - drums, percussion

Notes

© 1971 Atlantic Recording Corporation
Manufactured by MMG Inc., Japan

Forever Young Series


Exact Audio Copy V1.0 beta 4 from 7. December 2014

EAC extraction logfile from 13. February 2016, 13:23

Emerson, Lake & Palmer / Emerson, Lake & Palmer (1988, 20P2-2048)

Used drive : ATAPI iHAS124 B Adapter: 1 ID: 0

Read mode : Secure
Utilize accurate stream : Yes
Defeat audio cache : Yes
Make use of C2 pointers : No

Read offset correction : 6
Overread into Lead-In and Lead-Out : No
Fill up missing offset samples with silence : Yes
Delete leading and trailing silent blocks : No
Null samples used in CRC calculations : Yes
Used interface : Installed external ASPI interface

Used output format : User Defined Encoder
Selected bitrate : 128 kBit/s
Quality : High
Add ID3 tag : Yes
Command line compressor : C:\Program Files (x86)\Exact Audio Copy\Flac\flac.exe
Additional command line options : -V -8 -T "Date=%year%" -T "Genre=%genre%" %source%


TOC of the extracted CD

Track | Start | Length | Start sector | End sector
––––––––––––––––––––––––––––-
1 | 0:00.00 | 4:33.40 | 0 | 20514
2 | 4:33.40 | 12:33.72 | 20515 | 77061
3 | 17:07.37 | 5:08.00 | 77062 | 100161
4 | 22:15.37 | 7:44.63 | 100162 | 135024
5 | 30:00.25 | 6:52.12 | 135025 | 165936
6 | 36:52.37 | 4:38.18 | 165937 | 186804


Range status and errors

Selected range

Filename G:\CD\ELP - Emerson, Lake & Palmer.wav

Peak level 97.6 %
Extraction speed 5.3 X
Range quality 100.0 %
Test CRC B0DCDC26
Copy CRC B0DCDC26
Copy OK

No errors occurred


AccurateRip summary

Track 1 cannot be verified as accurate (confidence 2) [9455F719], AccurateRip returned [7DC0EDDE] (AR v2)
Track 2 cannot be verified as accurate (confidence 2) [90570C9D], AccurateRip returned [89AF097A] (AR v2)
Track 3 cannot be verified as accurate (confidence 2) [E1FD20AF], AccurateRip returned [49E83EC9] (AR v2)
Track 4 cannot be verified as accurate (confidence 2) [EE555106], AccurateRip returned [CA1C90D5] (AR v2)
Track 5 cannot be verified as accurate (confidence 2) [BEB9ED7A], AccurateRip returned [55807562] (AR v2)
Track 6 cannot be verified as accurate (confidence 2) [C8A099DF], AccurateRip returned [4B16FFD5] (AR v2)

No tracks could be verified as accurate
You may have a different pressing from the one(s) in the database

End of status report

–– CUETools DB Plugin V2.1.4

[CTDB TOCID: _fXmXiGqJsZWtBsQIshORWtp7dU-] found
Submit result: _fXmXiGqJsZWtBsQIshORWtp7dU- has been confirmed
Track | CTDB Status
1 | (3/3) Accurately ripped
2 | (3/3) Accurately ripped
3 | (3/3) Accurately ripped
4 | (3/3) Accurately ripped
5 | (3/3) Accurately ripped
6 | (3/3) Accurately ripped


==== Log checksum 97A7AC7CE50B48C0A4B07D2350751FADFB6CE9D46984139AB64E8F1AB6DCF2C2 ====


Many thanks to the original uploader: gerrV





Password: pass