Subcategories

Emerson, Lake & Palmer - Pictures At An Exhibition (1971) [Japanese Ed. 1999]

Posted By: Andi_Deris
Emerson, Lake & Palmer - Pictures At An Exhibition (1971) [Japanese Ed. 1999]

Emerson, Lake & Palmer - Pictures At An Exhibition (1971) [Japanese Ed. 1999]
EAC Rip | FLAC: Image+Cue+Log | MP3 CBR 320 kbps | Scans
216 Mb | 88 Mb | 62 Mb | Time: 38:03
Victor Entertainment, Inc. | VICP-60741
Progressive Rock, Art Rock, Symphonic Prog, Classical Crossover

Pictures at an Exhibition is a live album by the English progressive rock band Emerson, Lake & Palmer, released in November 1971 on Island Records. It is a recording of the band's arrangement of Pictures at an Exhibition by Modest Mussorgsky, performed at Newcastle City Hall on 26 March 1971. Emerson wished to arrange the piece after seeing an orchestral performance of it several years before. He bought a copy of the score, and pitched the idea to Lake and Palmer, who agreed to adapt it.

Pictures at an Exhibition went to number 2 on the UK Albums Chart and number 10 on the US Billboard 200. In 2001, it was reissued as a remastered edition that included a studio version of the piece.

Emerson, Lake & Palmer - Pictures At An Exhibition (1971) [Japanese Ed. 1999]




Emerson, Lake & Palmer - Pictures At An Exhibition (1971) [Japanese Ed. 1999]


Track Listing

01. Promenade (01:58)
02. The Gnome (04:17)
03. Promenade (01:23)
04. The Sage (04:41)
05. The Old Castle (02:32)
06. Blues Variation (04:14)
07. Promenade (01:28)
08. The Hut Of Baba Yaga (01:13)
09. The Curse Of Baba Yaga (04:09)
10. The Hut Of Baba Yaga (01:07)
11. The Great Gates Of Kiev - The End (06:27)
12. Nutrocker (04:35)

Produced by Greg Lake

Personnel

• Keith Emerson - pipe organ, Hammond (C3) and L100) organs, Moog modular synthesizer (ribbon controller), Clavinet
• Greg Lake - bass guitar, acoustic guitar, vocals
• Carl Palmer - drums, percussion

Notes

DIGITAL Remaster

Remastered by Joseph M. Palmaccio at PolyGram Studios

℗ & © 1972 Leadclass Ltd.


Exact Audio Copy V1.0 beta 3 from 29. August 2011

EAC extraction logfile from 2. October 2014, 15:02

Emerson, Lake & Palmer / Pictures At An Exhibition

Used drive : ASUS DRW-22B3S Adapter: 3 ID: 1

Read mode : Secure
Utilize accurate stream : Yes
Defeat audio cache : Yes
Make use of C2 pointers : No

Read offset correction : 6
Overread into Lead-In and Lead-Out : No
Fill up missing offset samples with silence : Yes
Delete leading and trailing silent blocks : No
Null samples used in CRC calculations : Yes
Used interface : Native Win32 interface for Win NT & 2000

Used output format : User Defined Encoder
Selected bitrate : 768 kBit/s
Quality : High
Add ID3 tag : No
Command line compressor : C:\Program Files\Exact Audio Copy\FLAC\FLAC.EXE
Additional command line options : -V -8 -T "Genre=%genre%" -T "Artist=%artist%" -T "Title=%title%" -T "Album=%albumtitle%" -T "Date=%year%" -T "Tracknumber=%tracknr%" -T "Comment=%comment%" %source%


TOC of the extracted CD

Track | Start | Length | Start sector | End sector
––––––––––––––––––––––––––––-
1 | 0:00.00 | 1:57.42 | 0 | 8816
2 | 1:57.42 | 4:16.38 | 8817 | 28054
3 | 6:14.05 | 1:23.02 | 28055 | 34281
4 | 7:37.07 | 4:40.50 | 34282 | 55331
5 | 12:17.57 | 2:31.60 | 55332 | 66716
6 | 14:49.42 | 4:13.68 | 66717 | 85759
7 | 19:03.35 | 1:28.25 | 85760 | 92384
8 | 20:31.60 | 1:12.35 | 92385 | 97819
9 | 21:44.20 | 4:09.10 | 97820 | 116504
10 | 25:53.30 | 1:06.40 | 116505 | 121494
11 | 26:59.70 | 6:27.00 | 121495 | 150519
12 | 33:26.70 | 4:35.07 | 150520 | 171151


Range status and errors

Selected range

Filename H:\g.y.m\1971. Emerson, Lake & Palmer - Pictures At An Exhibition (1999, Victor Records, Japan, VICP-60741)\Emerson, Lake & Palmer - Pictures At An Exhibition.wav

Peak level 100.0 %
Extraction speed 7.6 X
Range quality 100.0 %
Test CRC CDEB0131
Copy CRC CDEB0131
Copy OK

No errors occurred


AccurateRip summary

Track 1 accurately ripped (confidence 3) [C11EC102] (AR v2)
Track 2 accurately ripped (confidence 3) [A2CF014C] (AR v2)
Track 3 accurately ripped (confidence 3) [9F5DFBFC] (AR v2)
Track 4 accurately ripped (confidence 3) [78FAB779] (AR v2)
Track 5 accurately ripped (confidence 3) [9E801E2D] (AR v2)
Track 6 accurately ripped (confidence 3) [63AABAD3] (AR v2)
Track 7 accurately ripped (confidence 3) [574106CF] (AR v2)
Track 8 accurately ripped (confidence 3) [71938522] (AR v2)
Track 9 accurately ripped (confidence 3) [BA94DA7A] (AR v2)
Track 10 accurately ripped (confidence 3) [28463A87] (AR v2)
Track 11 accurately ripped (confidence 3) [7C05EAE9] (AR v2)
Track 12 accurately ripped (confidence 3) [B4887FEC] (AR v2)

All tracks accurately ripped

End of status report

==== Log checksum 5146257FEB1C621C20669325A1021E388275C1846C49C3659749E8633EF5D14D ====


Many thanks to the original uploader: g.y.m





Password: pass