Subcategories
Tags
Language
Tags

3LW - s/t (2000) {Epic}

Posted By: TestTickles
3LW - s/t (2000) {Epic}

3LW - s/t (2000) {Epic}
EAC Rip | FLAC with CUE and log | scans | 530 mb
MP3 CBR 320kbps | RAR | 116 mb
Genre: R&B, soul, rap

This is the 2000 debut album by New Jersey soul/R&B vocal group 3 Little Women, more commonly known as 3LW. This featured the hit songs "No More (Baby I'ma Do Right)" and "Playas Gon' Play". Epic Records are paycheck suppliers. The CD was enhanced so there is a folder featuring the "extras".

3LW - s/t (2000) {Epic}

01. No More (Baby I'ma Do Right)
02. Is You Feelin' Me
03. Playas Gon' Play
04. Gettin Too Heavy
05. I'm Gonna Make You Miss Me
06. Not This Time
07. More Than Friends (That's Right)
08. Curious
09. 'Til I Say So
10. Crush On You
11. Ocean
12. I Can't Take It (No More Remix)

Adrienne Bailon
Naturi Naughton
Kiely Williams

EAC extraction logfile from 26. March 2008, 8:21 for CD
3LW / 3LW

Used drive : LITE-ON DVDRW SOHW-1633S Adapter: 0 ID: 0
Read mode : Secure with NO C2, accurate stream, disable cache
Read offset correction : 12
Overread into Lead-In and Lead-Out : No

Used output format : Internal WAV Routines
44.100 Hz; 16 Bit; Stereo

Other options :
Fill up missing offset samples with silence : Yes
Delete leading and trailing silent blocks : No
Installed external ASPI interface


Track 1
Filename C:\cuntfist\FLAC\3LW - s-t (2000) [FLAC] {Epic}\01 - No More (Baby I'ma Do Right).wav

Pre-gap length 0:00:02.00

Peak level 100.0 %
Track quality 99.6 %
Test CRC 6477D377
Copy CRC 6477D377
Copy OK

Track 2
Filename C:\cuntfist\FLAC\3LW - s-t (2000) [FLAC] {Epic}\02 - Is You Feelin' Me.wav

Peak level 100.0 %
Track quality 99.9 %
Test CRC F849EF25
Copy CRC F849EF25
Copy OK

Track 3
Filename C:\cuntfist\FLAC\3LW - s-t (2000) [FLAC] {Epic}\03 - Playas Gon' Play.wav

Peak level 100.0 %
Track quality 100.0 %
Test CRC 6C036E56
Copy CRC 6C036E56
Copy OK

Track 4
Filename C:\cuntfist\FLAC\3LW - s-t (2000) [FLAC] {Epic}\04 - Gettin Too Heavy.wav

Peak level 100.0 %
Track quality 99.9 %
Test CRC 834F5762
Copy CRC 834F5762
Copy OK

Track 5
Filename C:\cuntfist\FLAC\3LW - s-t (2000) [FLAC] {Epic}\05 - I'm Gonna Make You Miss Me.wav

Peak level 100.0 %
Track quality 100.0 %
Test CRC 939FFBCA
Copy CRC 939FFBCA
Copy OK

Track 6
Filename C:\cuntfist\FLAC\3LW - s-t (2000) [FLAC] {Epic}\06 - Not This Time.wav

Peak level 100.0 %
Track quality 100.0 %
Test CRC 8FF6943C
Copy CRC 8FF6943C
Copy OK

Track 7
Filename C:\cuntfist\FLAC\3LW - s-t (2000) [FLAC] {Epic}\07 - More Than Friends (That's Right).wav

Peak level 100.0 %
Track quality 100.0 %
Test CRC 0657BAC2
Copy CRC 0657BAC2
Copy OK

Track 8
Filename C:\cuntfist\FLAC\3LW - s-t (2000) [FLAC] {Epic}\08 - Curious.wav

Peak level 100.0 %
Track quality 99.9 %
Test CRC E946DBE8
Copy CRC E946DBE8
Copy OK

Track 9
Filename C:\cuntfist\FLAC\3LW - s-t (2000) [FLAC] {Epic}\09 - 'Til I Say So.wav

Peak level 100.0 %
Track quality 100.0 %
Test CRC CCE1184E
Copy CRC CCE1184E
Copy OK

Track 10
Filename C:\cuntfist\FLAC\3LW - s-t (2000) [FLAC] {Epic}\10 - Crush On You.wav

Peak level 100.0 %
Track quality 100.0 %
Test CRC 69FD6BCB
Copy CRC 69FD6BCB
Copy OK

Track 11
Filename C:\cuntfist\FLAC\3LW - s-t (2000) [FLAC] {Epic}\11 - Ocean.wav

Peak level 100.0 %
Track quality 100.0 %
Test CRC 8FDF9166
Copy CRC 8FDF9166
Copy OK

Track 12
Filename C:\cuntfist\FLAC\3LW - s-t (2000) [FLAC] {Epic}\12 - I Can't Take It (No More Remix).wav

Peak level 100.0 %
Track quality 100.0 %
Test CRC 05DBD089
Copy CRC 05DBD089
Copy OK

No errors occured


End of status report



3LW - s/t (2000) {Epic}


Thank you to the original uploader.