Subcategories

Eagles - Greatest Hits Volume 2 (1982)

Posted By: v3122
Eagles - Greatest Hits Volume 2 (1982)

Eagles - Greatest Hits Volume 2 (1982)
EAC | Flac(Image) + Cue + Log & MP3 CBR 320Kbps
Asylum, 9 60205-2 | ~ 260 or 110 Mb | Scans(300dpi, jpg) -> 53 Mb
Blues Rock / Country Rock

With the Eagles having officially disbanded in May 1982, leaving behind eight Top 40 hits that followed the release of the spectacularly successful Eagles: Their Greatest Hits 1971-1975, Asylum Records naturally compiled a second hits collection for fall 1982 release. Seven of those hits were included (the exception being the seasonal "Please Come Home for Christmas"), along with three LP tracks, one each from One of These Nights, Hotel California, and The Long Run. Disdained by longtime fans and by the Eagles themselves, the collection was perfect for listeners who knew the band through number one radio hits like "New Kid in Town," "Hotel California," and "Heartache Tonight." It also spared them having to buy mediocre albums like The Long Run and Eagles Live just to have copies of the best-known songs from those releases. No wonder, then, that over the years, Eagles Greatest Hits, Vol. 2 achieved multi-platinum status.

by William Ruhlmann, AMG

Eagles - Greatest Hits Volume 2 (1982):

Eagles - Greatest Hits Volume 2 (1982)

Tracklist:

01. Hotel California (6:29)
02. Heartache Tonight (4:24)
03. Seven Bridges Road (2:58)
04. Victim of Love (4:09)
05. The Sad Cafe (5:32)
06. Life in the Fast Lane (4:45)
07. I Can't Tell You Why (4:54)
08. New Kid in Town (5:04)
09. The Long Run (3:41)
10. After the Thrill Is Gone (4:40)

Exact Audio Copy V1.0 beta 3 from 29. August 2011

EAC extraction logfile from 4. November 2012, 18:15

Eagles / Greatest Hits Volume 2

Used drive : HL-DT-STDVDRAM GH24NS90 Adapter: 1 ID: 1

Read mode : Secure
Utilize accurate stream : Yes
Defeat audio cache : Yes
Make use of C2 pointers : No

Read offset correction : 6
Overread into Lead-In and Lead-Out : No
Fill up missing offset samples with silence : Yes
Delete leading and trailing silent blocks : No
Null samples used in CRC calculations : Yes
Used interface : Native Win32 interface for Win NT & 2000

Used output format : Internal WAV Routines
Sample format : 44.100 Hz; 16 Bit; Stereo


TOC of the extracted CD

Track | Start | Length | Start sector | End sector
––––––––––––––––––––––––––––-
1 | 0:00.32 | 6:29.33 | 32 | 29239
2 | 6:29.65 | 4:24.00 | 29240 | 49039
3 | 10:53.65 | 2:57.55 | 49040 | 62369
4 | 13:51.45 | 4:09.17 | 62370 | 81061
5 | 18:00.62 | 5:31.38 | 81062 | 105924
6 | 23:32.25 | 4:44.47 | 105925 | 127271
7 | 28:16.72 | 4:53.48 | 127272 | 149294
8 | 33:10.45 | 5:03.40 | 149295 | 172059
9 | 38:14.10 | 3:41.10 | 172060 | 188644
10 | 41:55.20 | 4:40.27 | 188645 | 209671


Range status and errors

Selected range

Filename C:\Music CD\Eagles - Greatest Hits Volume 2.wav

Peak level 89.1 %
Extraction speed 2.4 X
Range quality 100.0 %
Test CRC 1B21E5A7
Copy CRC 1B21E5A7
Copy OK

No errors occurred


AccurateRip summary

Track 1 accurately ripped (confidence 6) [3AA1EE99] (AR v2)
Track 2 accurately ripped (confidence 6) [53D5DC7C] (AR v2)
Track 3 accurately ripped (confidence 7) [45B11FAB] (AR v2)
Track 4 accurately ripped (confidence 6) [C8F491E9] (AR v2)
Track 5 accurately ripped (confidence 6) [14BB7961] (AR v2)
Track 6 accurately ripped (confidence 5) [8EEFDE5C] (AR v2)
Track 7 accurately ripped (confidence 6) [407B9342] (AR v2)
Track 8 accurately ripped (confidence 5) [3F4BD484] (AR v2)
Track 9 accurately ripped (confidence 6) [3729CA9C] (AR v2)
Track 10 accurately ripped (confidence 5) [A5AFF94A] (AR v2)

All tracks accurately ripped

End of status report

==== Log checksum 54A346AA5A3C602D346C28ABAB84D12F5E614A7914BF1913D93082C0E509CAE7 ====

foobar2000 1.2.9 / Dynamic Range Meter 1.1.1
log date: 2015-07-07 01:17:56

––––––––––––––––––––––––––––––––––––––––
Analyzed: Eagles / Greatest Hits Volume 2
––––––––––––––––––––––––––––––––––––––––

DR Peak RMS Duration Track
––––––––––––––––––––––––––––––––––––––––
DR14 -1.20 dB -17.95 dB 6:29 01-Hotel California
DR14 -1.20 dB -16.98 dB 4:24 02-Heartache Tonight
DR13 -2.27 dB -17.93 dB 2:58 03-Seven Bridges Road
DR13 -1.00 dB -16.85 dB 4:09 04-Victim of Love
DR15 -1.00 dB -18.52 dB 5:32 05-The Sad Cafe
DR14 -1.00 dB -16.50 dB 4:45 06-Life in the Fast Lane
DR15 -1.42 dB -19.40 dB 4:54 07-I Can't Tell You Why
DR13 -1.00 dB -16.65 dB 5:04 08-New Kid in Town
DR14 -1.00 dB -16.74 dB 3:41 09-The Long Run
DR14 -1.00 dB -18.48 dB 4:40 10-After the Thrill Is Gone
––––––––––––––––––––––––––––––––––––––––

Number of tracks: 10
Official DR value: DR14

Samplerate: 44100 Hz
Channels: 2
Bits per sample: 16
Bitrate: 736 kbps
Codec: FLAC

[CUETools log; Date: 07.07.2015 1:13:43; Version: 2.1.4]
Pregap length 00:00:32.
[CTDB TOCID: y_hQiJY.BtERZ8i2rzrY7mZrw4M-] found.
Track | CTDB Status
1 | (53/56) Accurately ripped
2 | (52/56) Accurately ripped
3 | (54/56) Accurately ripped
4 | (54/56) Accurately ripped
5 | (54/56) Accurately ripped
6 | (54/56) Accurately ripped
7 | (54/56) Accurately ripped
8 | (53/56) Accurately ripped
9 | (53/56) Accurately ripped
10 | (54/56) Accurately ripped
[AccurateRip ID: 0011ec55-008e407a-910aeb0a] found.
Track [ CRC | V2 ] Status
01 [40a1fe1a|3aa1ee99] (090+068/410) Accurately ripped
02 [8ceb91dc|53d5dc7c] (092+074/427) Accurately ripped
03 [78bed705|45b11fab] (093+073/429) Accurately ripped
04 [1bbb67aa|c8f491e9] (087+072/419) Accurately ripped
05 [a0913556|14bb7961] (088+075/419) Accurately ripped
06 [2311e2b6|8eefde5c] (091+070/420) Accurately ripped
07 [2736213d|407b9342] (089+071/421) Accurately ripped
08 [9bdf48cc|3f4bd484] (090+071/416) Accurately ripped
09 [5ce7ee9d|3729ca9c] (090+070/416) Accurately ripped
10 [914761fc|a5aff94a] (081+068/390) Accurately ripped
Offsetted by -22:
01 [d99e84c2] (009/410) Accurately ripped
02 [e9098502] (009/427) Accurately ripped
03 [96dba46d] (009/429) Accurately ripped
04 [b51273b1] (009/419) Accurately ripped
05 [20a2874f] (009/419) Accurately ripped
06 [e027d626] (010/420) Accurately ripped
07 [f648544b] (010/421) Accurately ripped
08 [9d1502f2] (010/416) Accurately ripped
09 [3751aa87] (009/416) Accurately ripped
10 [e375b293] (008/390) Accurately ripped
Offsetted by 1649:
01 [52b2055e] (091/410) Accurately ripped
02 [12fc51eb] (097/427) Accurately ripped
03 [73a760a6] (095/429) Accurately ripped
04 [032a00e3] (093/419) Accurately ripped
05 [1f8c264e] (093/419) Accurately ripped
06 [bdbba852] (092/420) Accurately ripped
07 [864aba18] (094/421) Accurately ripped
08 [e42f7b58] (092/416) Accurately ripped
09 [280a7183] (093/416) Accurately ripped
10 [df822ca8] (088/390) Accurately ripped
Offsetted by 1658:
01 [4e4ab702] (002/410) Accurately ripped
02 [5e85ae0a] (002/427) Accurately ripped
03 [cac91500] (002/429) Accurately ripped
04 [1d7fe564] (002/419) Accurately ripped
05 [192ce999] (002/419) Accurately ripped
06 [d34a81ca] (002/420) Accurately ripped
07 [3194bc7b] (002/421) Accurately ripped
08 [8a5b3c8e] (002/416) Accurately ripped
09 [ca9c29cb] (002/416) Accurately ripped
10 [985728c2] (002/390) Accurately ripped
Offsetted by 1925:
01 [7651f7ae] (039/410) Accurately ripped
02 [9b5a30d1] (041/427) Accurately ripped
03 [515b3551] (042/429) Accurately ripped
04 [15306c4c] (043/419) Accurately ripped
05 [3155babb] (039/419) Accurately ripped
06 [0d510677] (041/420) Accurately ripped
07 [607dadf4] (040/421) Accurately ripped
08 [6cc4bc71] (039/416) Accurately ripped
09 [1f5128f6] (041/416) Accurately ripped
10 [47a3462f] (039/390) Accurately ripped
Offsetted by 1973:
01 [b42b006e] (009/410) Accurately ripped
02 [9d88ed3a] (009/427) Accurately ripped
03 [ae6cdf89] (009/429) Accurately ripped
04 [0fbabb57] (009/419) Accurately ripped
05 [e8f06056] (008/419) Accurately ripped
06 [2fa24538] (009/420) Accurately ripped
07 [9cb31004] (009/421) Accurately ripped
08 [f2117a69] (009/416) Accurately ripped
09 [f4ffba26] (009/416) Accurately ripped
10 [83e01f81] (008/390) Accurately ripped
Offsetted by 1979:
01 [5be62186] (000/410) No match (V2 was not tested)
02 [e56a47db] (000/427) No match (V2 was not tested)
03 [c117ade3] (000/429) No match (V2 was not tested)
04 [bfe53348] (000/419) No match (V2 was not tested)
05 [e9fa28e8] (000/419) No match (V2 was not tested)
06 [edbf48cc] (000/420) No match (V2 was not tested)
07 [6439bc46] (000/421) No match (V2 was not tested)
08 [b2dc6b32] (000/416) No match (V2 was not tested)
09 [a73d4639] (000/416) No match (V2 was not tested)
10 [b8c3810d] (000/390) No match (V2 was not tested)

Track Peak [ CRC32 ] [W/O NULL] [ LOG ]
– 89,1 [1B21E5A7] [55B957A8] CRC32
01 87,0 [8DE56351] [CD7BFBB8]
02 87,0 [056AF073] [C4450E5C]
03 77,0 [6F9A276F] [BA84FDD0]
04 89,1 [DB4E4ADF] [69156C3A]
05 89,1 [7634AF6E] [26FDE3CC]
06 89,1 [5BF6D9F0] [E5F98D2C]
07 84,9 [C2DC8DCE] [4CCF2E87]
08 89,1 [F3B29884] [191E2E96]
09 89,1 [76135749] [7CBE11F0]
10 89,1 [02FD8E94] [CA515ABA]

Eagles - Greatest Hits Volume 2 (1982)

All thanks go to Аннушка

Eagles in my Blog

Download Eagles - Greatest Hits Volume 2 (1982):