Tags
Language
Tags

Edgar Moreau, Michael Sanderling, Luzerner Sinfonieorchester - Transmission: Korngold, Bruch, Bloch, Ravel (2021)

Posted By: ArlegZ
Edgar Moreau, Michael Sanderling, Luzerner Sinfonieorchester - Transmission: Korngold, Bruch, Bloch, Ravel (2021)

Edgar Moreau, Michael Sanderling, Luzerner Sinfonieorchester - Transmission: Korngold, Bruch, Bloch, Ravel (2021)
EAC | FLAC | Image (Cue & Log) ~ 275 Mb | Total time: 65:53 | Scans included
Classical | Label: Erato | # 0190295105105 | Recorded: 2020

Edgar Moreau salutes his family heritage and highlights landmarks in his artistic development with Transmission – music by Bloch, Korngold, Bruch and Ravel, recorded with the Lucerne Symphony Orchestra and its chief conductor Michael Sanderling. Moreau’s mother is of Polish-Jewish extraction and all five works on the album have a connection with Jewish culture. The largest work on the programme is Bloch’s Schelomo, which Moreau describes as “a majestic meeting of concerto and symphony, rich and colourful in its orchestration and full of contrasts”.

Performer:
Edgar Moreau, cello
Luzerner Sinfonieorchester
Michael Sanderling, conductor

Track List:
Ernest Bloch (1880-1959)
From Jewish Life, B.54
01. I. Prayer. Andante Moderato
02. II. Supplication
03. III. Jewish Song
Erich Wolfgang Korngold (1897-1957)
Cello Concerto in C, Op.37
04. I. Allegro moderato, ma con fuoco
05. II. Grave - Lento
06. III. Allegro moderato
Max Bruch (1838-1920)
07. Kol Nidrei, Op.47
Ernest Bloch
Schelomo – Rhapsodie hébraïque, B.39
08. I. Lento moderato
09. II. Allegro moderato
10. III. Andante moderato
Maurice Ravel (1875-1937)
2 Mélodies hébraïques, M.22
11. No. 1 Kaddisch
12. No. 2 L'énigme éternelle


Exact Audio Copy V1.5 from 20. February 2020

EAC extraction logfile from 12. March 2022, 0:21

Edgar Moreau, Luzerner Sinfonieorchester, Michael Sanderling / Transmission

Used drive : ASUS SDRW-08U7M-U Adapter: 1 ID: 0

Read mode : Secure
Utilize accurate stream : Yes
Defeat audio cache : Yes
Make use of C2 pointers : No

Read offset correction : 6
Overread into Lead-In and Lead-Out : No
Fill up missing offset samples with silence : Yes
Delete leading and trailing silent blocks : No
Null samples used in CRC calculations : Yes
Used interface : Native Win32 interface for Win NT & 2000

Used output format : User Defined Encoder
Selected bitrate : 128 kBit/s
Quality : High
Add ID3 tag : No
Command line compressor : C:\Program Files (x86)\Exact Audio Copy\Flac\flac.exe
Additional command line options : -V -8 -T "Date=%year%" -T "Genre=%genre%" %source%

TOC of the extracted CD

Track | Start | Length | Start sector | End sector
––––––––––––––––––––––––––––-
1 | 0:00.00 | 4:48.74 | 0 | 21673
2 | 4:48.74 | 3:21.42 | 21674 | 36790
3 | 8:10.41 | 3:01.30 | 36791 | 50395
4 | 11:11.71 | 5:28.66 | 50396 | 75061
5 | 16:40.62 | 3:48.74 | 75062 | 92235
6 | 20:29.61 | 3:56.20 | 92236 | 109955
7 | 24:26.06 | 11:22.08 | 109956 | 161113
8 | 35:48.14 | 8:56.42 | 161114 | 201355
9 | 44:44.56 | 5:49.15 | 201356 | 227545
10 | 50:33.71 | 8:21.31 | 227546 | 265151
11 | 58:55.27 | 5:34.62 | 265152 | 290263
12 | 64:30.14 | 1:23.18 | 290264 | 296506

Range status and errors

Selected range

Filename C:\temp\Transmission - Edgar Moreau - 2021\Transmission.wav

Peak level 95.7 %
Extraction speed 4.6 X
Range quality 99.9 %
Test CRC 31B8513D
Copy CRC 31B8513D
Copy OK

No errors occurred

AccurateRip summary

Track 1 not present in database
Track 2 not present in database
Track 3 not present in database
Track 4 not present in database
Track 5 not present in database
Track 6 not present in database
Track 7 not present in database
Track 8 not present in database
Track 9 not present in database
Track 10 not present in database
Track 11 not present in database
Track 12 not present in database

None of the tracks are present in the AccurateRip database

End of status report

==== Log checksum 7AC0088C2ADE46A17E991DEFF353A8652FD0748166BC32583072FA4D71B6A6C4 ====

Edgar Moreau, Michael Sanderling, Luzerner Sinfonieorchester - Transmission: Korngold, Bruch, Bloch, Ravel (2021)

Thanks to the original releaser