Tags
Language
Tags

Edna Stern, Amandine Beyer - Brahms, Busoni, Lutz, Bach: Chaconne (2005) (Repost)

Posted By: tirexiss
Edna Stern, Amandine Beyer - Brahms, Busoni, Lutz, Bach: Chaconne (2005) (Repost)

Edna Stern, Amandine Beyer - Brahms, Busoni, Lutz, Bach: Chaconne (2005)
EAC | FLAC (image+.cue, log) | Covers Included | 60:02 | 259 MB
Genre: Classical | Label: Zig-Zag territories | Catalog: ZZT050601

A terrific idea that almost but not quite comes off, this disc called Chaconne takes as its basis Bach's Chaconne from his D minor Partita for solo violin and adds transcriptions of the work for piano by Johannes Brahms, Ferruccio Busoni, and Rudolf Lutz, the last named the teacher of pianist Edna Stern. It nearly succeeds. Stern's playing in the transcriptions is far more than professional, but not quite up to the level of the music. In Busoni's super-virtuoso transcription that opens the disc, Stern can do most of what Busoni demands, but there are passages in the central choral that are beyond her. In Lutz' quasi-modernist transcription that follows, Stern can do everything that Lutz requires, but he did, after all, write the transcription with her in mind. In Brahms' severely austere transcription that follows, Stern can play most but not all of the notes and catches and some but not much of the somber asceticism of the tone. The original version of the Chaconne that closes the disc is well but not altogether persuasively played by violinist Amandine Beyer. While one looks forward to hearing more by these artists, listeners looking for outstanding performances of the Chaconne are advised to look elsewhere – to Michelangeli's shattering virtuosity in Busoni's transcription, to Zimmerman's stunning intensity in Brahms' transcription and to Milstein's staggering concentration in Bach's original. Harmonia Mundi's Zig Zag's sound is so present it's palpable.

Edna Stern, Amandine Beyer - Brahms, Busoni, Lutz, Bach: Chaconne (2005) (Repost)

Track List:

1. Ferruccio Busoni - Chaconne
2. Rudolf Lutz - Chaconne
3. Johannes Brahms - Chaconne
4. Johann Sebastian Bach - Chaconne

Performers:
Edna Stern – piano
Amandine Beyer – Violon

Exact Audio Copy V0.99 prebeta 5 from 4. May 2009

EAC extraction logfile from 17. November 2010, 20:08

Amandine BEYER & Edna STERN / Busoni, Lutz, Brahms, Bach

Used drive : Optiarc DVD RW AD-7241S Adapter: 5 ID: 0

Read mode : Secure
Utilize accurate stream : Yes
Defeat audio cache : Yes
Make use of C2 pointers : No

Read offset correction : 48
Overread into Lead-In and Lead-Out : No
Fill up missing offset samples with silence : Yes
Delete leading and trailing silent blocks : No
Null samples used in CRC calculations : Yes
Used interface : Native Win32 interface for Win NT & 2000
Gap handling : Not detected, thus appended to previous track

Used output format : User Defined Encoder
Selected bitrate : 768 kBit/s
Quality : High
Add ID3 tag : No
Command line compressor : C:\Program Files\Exact Audio Copy\Flac\flac.exe
Additional command line options : -8 -V -T "ARTIST=%a" -T "TITLE=%t" -T "ALBUM=%g" -T "DATE=%y" -T "TRACKNUMBER=%n" -T "GENRE=%m" -T "COMMENT=EAC FLAC -8" %s


TOC of the extracted CD

Track | Start | Length | Start sector | End sector
––––––––––––––––––––––––––––-
1 | 0:00.00 | 15:47.12 | 0 | 71036
2 | 15:47.12 | 15:18.47 | 71037 | 139933
3 | 31:05.59 | 15:28.50 | 139934 | 209583
4 | 46:34.34 | 13:58.19 | 209584 | 272452


Track 1

Filename E:\Раздача\образы музыки на раздачу\Bach\01. Amandine BEYER & Edna STERN – Ferruccio BUSONI- Chaconne.wav

Peak level 91.9 %
Track quality 100.0 %
Test CRC C726B80F
Copy CRC C726B80F
Accurately ripped (confidence 2) [4D566EFD]
Copy OK

Track 2

Filename E:\Раздача\образы музыки на раздачу\Bach\02. Amandine BEYER & Edna STERN – Rudolf LUTZ- Chaconne.wav

Peak level 91.1 %
Track quality 100.0 %
Test CRC 852F08A2
Copy CRC 852F08A2
Accurately ripped (confidence 2) [89B57604]
Copy OK

Track 3

Filename E:\Раздача\образы музыки на раздачу\Bach\03. Amandine BEYER & Edna STERN – Johannes BRAHMS- Chaconne.wav

Peak level 83.2 %
Track quality 100.0 %
Test CRC 6E578E33
Copy CRC 6E578E33
Accurately ripped (confidence 2) [83E61BB1]
Copy OK

Track 4

Filename E:\Раздача\образы музыки на раздачу\Bach\04. Amandine BEYER & Edna STERN – Johann Sebastian BACH- Chaconne.wav

Peak level 68.3 %
Track quality 100.0 %
Test CRC 8BC33AB2
Copy CRC 8BC33AB2
Accurately ripped (confidence 2) [F79544BF]
Copy OK


All tracks accurately ripped

No errors occurred

End of status report

Thanks to the Original ripper (bibkis)!

Welcome to my blog!

Download: