Tags
Language
Tags

Edward Ka-Spel: Discography part 06 (2005-2008)

Posted By: v3122
Edward Ka-Spel: Discography part 06 (2005-2008)

Edward Ka-Spel: Discography part 06 (2005-2008)
EAC | Flac(Image) + Cue + Log & MP3 CBR 320Kbps
6CD | Label: Various | ~ 1890 or 816 Mb | Artwork(jpg) -> 54 Mb
Electronic, Rock, Abstract, Experimental

Edward Ka-Spel is a singer, songwriter and musician. He is probably best known as the lead singer, songwriter and co-founder (with Phil “The Silverman” Knight) of the prolific underground band The Legendary Pink Dots.
Edward Ka-Spel: Discography part 06 (2005-2008)

Edward Ka-Spel: Discography part 06 (2005-2008):

Edward Ka-Spel: Discography part 06 (2005-2008)

Tracklist CD01. 2005 - Happy New Year [Beta-Lactam Ring, mt112]:

01. Happy New Year (13:38)
02. What Goes Around (12:42)

Exact Audio Copy V0.99 prebeta 5 from 4. May 2009

EAC extraction logfile from 9. November 2010, 18:23

Edward Ka-Spel / Happy New Year

Used drive : LITE-ON DVDRW LH-20A1L Adapter: 2 ID: 0

Read mode : Secure
Utilize accurate stream : Yes
Defeat audio cache : Yes
Make use of C2 pointers : No

Read offset correction : 6
Overread into Lead-In and Lead-Out : No
Fill up missing offset samples with silence : Yes
Delete leading and trailing silent blocks : No
Null samples used in CRC calculations : Yes
Used interface : Installed external ASPI interface

Used output format : Internal WAV Routines
Sample format : 44.100 Hz; 16 Bit; Stereo


TOC of the extracted CD

Track | Start | Length | Start sector | End sector
––––––––––––––––––––––––––––-
1 | 0:00.00 | 13:43.05 | 0 | 61729
2 | 13:43.05 | 12:36.74 | 61730 | 118503


Range status and errors

Selected range

Filename Z:\data\mp3\Seeding\Edward Ka-Spel\2006-Happy New Year\Happy New Year.wav

Peak level 98.8 %
Range quality 100.0 %
Test CRC 0A8390A8
Copy CRC 0A8390A8
Copy OK

No errors occurred


AccurateRip summary

Track 1 not present in database
Track 2 not present in database

None of the tracks are present in the AccurateRip database

End of status report


Edward Ka-Spel: Discography part 06 (2005-2008)

Tracklist CD02. 2005 - Kissing Frogs Is Fine [Zakat/Союз, ZAKCD035]:

01. Radio 6 (05:17)
02. Belief On A Breeze (11:10)
03. Chyekk 1 (00:51)
04. Saturn's Rings - Indian Aleluya (04:55)
05. Klazh Tristurr (00:21)
06. Lisa's Resurrection (05:57)
07. Forbidden Zone (04:37)
08. Jey The Canary (01:30)
09. The Char Char (03:53)
10. Intermezzo (00:37)
11. Hotel Blanc (14:47)
12. Extract From 'A Birth Marked Conspiracy' (04:54)
13. Share The Day (04:45)
14. Dream Stealer (03:52)
15. Hotel X (05:59)

Exact Audio Copy V0.99 prebeta 5 from 4. May 2009

EAC extraction logfile from 13. November 2010, 19:57

Edward Ka-Spel / Kissing Frogs Is Fine

Used drive : LITE-ON LTR-40125S Adapter: 1 ID: 1

Read mode : Secure
Utilize accurate stream : Yes
Defeat audio cache : Yes
Make use of C2 pointers : No

Read offset correction : 12
Overread into Lead-In and Lead-Out : No
Fill up missing offset samples with silence : Yes
Delete leading and trailing silent blocks : No
Null samples used in CRC calculations : Yes
Used interface : Installed external ASPI interface

Used output format : Internal WAV Routines
Sample format : 44.100 Hz; 16 Bit; Stereo


TOC of the extracted CD

Track | Start | Length | Start sector | End sector
––––––––––––––––––––––––––––-
1 | 0:00.00 | 5:16.63 | 0 | 23762
2 | 5:16.63 | 11:10.34 | 23763 | 74046
3 | 16:27.22 | 0:51.14 | 74047 | 77885
4 | 17:18.36 | 4:55.14 | 77886 | 100024
5 | 22:13.50 | 0:20.45 | 100025 | 101569
6 | 22:34.20 | 5:56.55 | 101570 | 128324
7 | 28:31.00 | 4:37.11 | 128325 | 149110
8 | 33:08.11 | 1:29.63 | 149111 | 155848
9 | 34:37.74 | 3:52.46 | 155849 | 173294
10 | 38:30.45 | 0:36.52 | 173295 | 176046
11 | 39:07.22 | 14:47.29 | 176047 | 242600
12 | 53:54.51 | 4:54.22 | 242601 | 264672
13 | 58:48.73 | 4:44.43 | 264673 | 286015
14 | 63:33.41 | 3:52.15 | 286016 | 303430
15 | 67:25.56 | 5:59.22 | 303431 | 330377


Range status and errors

Selected range

Filename Z:\data\mp3\Seeding\Edward Ka-Spel\2005-Kissing Frogs Is Fine\Kissing Frogs Is Fine.wav

Peak level 100.0 %
Range quality 100.0 %
Test CRC ABA07520
Copy CRC ABA07520
Copy OK

No errors occurred


AccurateRip summary

Track 1 accurately ripped (confidence 2) [B669CDDB]
Track 2 accurately ripped (confidence 2) [26F69971]
Track 3 accurately ripped (confidence 2) [01399136]
Track 4 accurately ripped (confidence 2) [2CFF3DD8]
Track 5 accurately ripped (confidence 2) [61A715F2]
Track 6 accurately ripped (confidence 2) [89186D75]
Track 7 accurately ripped (confidence 2) [437ED005]
Track 8 accurately ripped (confidence 2) [42961662]
Track 9 accurately ripped (confidence 2) [7EBFA8FB]
Track 10 accurately ripped (confidence 2) [6FC62D52]
Track 11 accurately ripped (confidence 2) [241106E0]
Track 12 accurately ripped (confidence 2) [21F3DDEE]
Track 13 accurately ripped (confidence 2) [F08F397F]
Track 14 accurately ripped (confidence 2) [63C0F653]
Track 15 accurately ripped (confidence 2) [52A1B2EF]

All tracks accurately ripped

End of status report


Edward Ka-Spel: Discography part 06 (2005-2008)

Tracklist CD03. 2007 - Dream Logik Part One [Beta-Lactam Ring, mt203]:

01. Threshhold (00:52)
02. Harvester (04:03)
03. Good Life (03:03)
04. Backyard (09:12)
05. And the Stars (05:41)
06. The 9 o'clock Train to Oblivion (11:08)
07. Laughing Gas (07:03)
08. Doughnut (03:18)
09. Revolution 834 (12:00)

Exact Audio Copy V0.99 prebeta 5 from 4. May 2009

EAC extraction logfile from 10. November 2010, 11:44

Edward Ka-Spel / Dream Logik Part One

Used drive : LITE-ON LTR-40125S Adapter: 1 ID: 1

Read mode : Secure
Utilize accurate stream : Yes
Defeat audio cache : Yes
Make use of C2 pointers : No

Read offset correction : 12
Overread into Lead-In and Lead-Out : No
Fill up missing offset samples with silence : Yes
Delete leading and trailing silent blocks : No
Null samples used in CRC calculations : Yes
Used interface : Installed external ASPI interface

Used output format : Internal WAV Routines
Sample format : 44.100 Hz; 16 Bit; Stereo


TOC of the extracted CD

Track | Start | Length | Start sector | End sector
––––––––––––––––––––––––––––-
1 | 0:00.00 | 0:52.20 | 0 | 3919
2 | 0:52.20 | 4:03.00 | 3920 | 22144
3 | 4:55.20 | 3:03.26 | 22145 | 35895
4 | 7:58.46 | 9:11.48 | 35896 | 77268
5 | 17:10.19 | 5:41.13 | 77269 | 102856
6 | 22:51.32 | 11:08.30 | 102857 | 152986
7 | 33:59.62 | 7:02.70 | 152987 | 184706
8 | 41:02.57 | 3:18.05 | 184707 | 199561
9 | 44:20.62 | 12:00.23 | 199562 | 253584


Range status and errors

Selected range

Filename Z:\data\mp3\Seeding\Edward Ka-Spel\2006-Dream Logik Part One\Dream Logik Part One.wav

Peak level 96.6 %
Range quality 100.0 %
Test CRC 33AB22C4
Copy CRC 33AB22C4
Copy OK

No errors occurred


AccurateRip summary

Track 1 accurately ripped (confidence 1) [AF146538]
Track 2 accurately ripped (confidence 1) [5180F12A]
Track 3 accurately ripped (confidence 1) [96B0B890]
Track 4 accurately ripped (confidence 1) [08102145]
Track 5 accurately ripped (confidence 1) [46E1A75D]
Track 6 accurately ripped (confidence 1) [2F26B92C]
Track 7 accurately ripped (confidence 1) [437A3C41]
Track 8 accurately ripped (confidence 1) [DCEAF573]
Track 9 accurately ripped (confidence 1) [FBE946F5]

All tracks accurately ripped

End of status report


Edward Ka-Spel: Discography part 06 (2005-2008)

Tracklist CD04. 2007 - Melancholics Anonymous [Beta-Lactam Ring, mt145]:

01. Clara Rockmore's Dog (05:58)
02. Complex (03:33)
03. Meltdown (11:41)
04. Stars on Some Days (03:32)
05. Burden (04:59)
06. Karis in the Spring (09:49)
07. The Evidence of Absence (17:21)

Exact Audio Copy V0.99 prebeta 5 from 4. May 2009

EAC extraction logfile from 24. November 2010, 19:00

Edward Ka-Spel / Melancholics Anonymous

Used drive : LITE-ON DVDRW LH-20A1L Adapter: 4 ID: 0

Read mode : Secure
Utilize accurate stream : Yes
Defeat audio cache : Yes
Make use of C2 pointers : No

Read offset correction : 6
Overread into Lead-In and Lead-Out : No
Fill up missing offset samples with silence : Yes
Delete leading and trailing silent blocks : No
Null samples used in CRC calculations : Yes
Used interface : Installed external ASPI interface

Used output format : Internal WAV Routines
Sample format : 44.100 Hz; 16 Bit; Stereo


TOC of the extracted CD

Track | Start | Length | Start sector | End sector
––––––––––––––––––––––––––––-
1 | 0:00.00 | 5:58.33 | 0 | 26882
2 | 5:58.33 | 3:33.11 | 26883 | 42868
3 | 9:31.44 | 11:41.24 | 42869 | 95467
4 | 21:12.68 | 3:32.20 | 95468 | 111387
5 | 24:45.13 | 4:58.51 | 111388 | 133788
6 | 29:43.64 | 9:48.38 | 133789 | 177926
7 | 39:32.27 | 17:20.71 | 177927 | 255997


Range status and errors

Selected range

Filename Z:\data\mp3\Seeding\Edward Ka-Spel\2007-Melancholics Anonymous\melancholics.wav

Peak level 96.6 %
Range quality 99.9 %
Test CRC D41E4EC4
Copy CRC D41E4EC4
Copy OK

No errors occurred


AccurateRip summary

Track 1 accurately ripped (confidence 3) [B2E50586]
Track 2 accurately ripped (confidence 3) [5A6F40FF]
Track 3 accurately ripped (confidence 3) [D992523D]
Track 4 accurately ripped (confidence 3) [98F19CFA]
Track 5 accurately ripped (confidence 3) [072FC295]
Track 6 accurately ripped (confidence 3) [C2302A5C]
Track 7 accurately ripped (confidence 3) [7D7AFD70]

All tracks accurately ripped

End of status report


Edward Ka-Spel: Discography part 06 (2005-2008)

Tracklist CD05. 2008 - Burning Church (Version Hot) [Beta-Lactam Ring, mt213]:

01. Burning Church (Version Hot) (18:01)

Exact Audio Copy V0.99 prebeta 5 from 4. May 2009

EAC extraction logfile from 9. November 2010, 12:01

Edward Ka-Spel / Burning Church (Version Hot)

Used drive : LITE-ON LTR-40125S Adapter: 1 ID: 1

Read mode : Secure
Utilize accurate stream : Yes
Defeat audio cache : Yes
Make use of C2 pointers : No

Read offset correction : 12
Overread into Lead-In and Lead-Out : No
Fill up missing offset samples with silence : Yes
Delete leading and trailing silent blocks : No
Null samples used in CRC calculations : Yes
Used interface : Installed external ASPI interface

Used output format : Internal WAV Routines
Sample format : 44.100 Hz; 16 Bit; Stereo


TOC of the extracted CD

Track | Start | Length | Start sector | End sector
––––––––––––––––––––––––––––-
1 | 0:00.00 | 18:01.03 | 0 | 81077


Range status and errors

Selected range

Filename Z:\data\mp3\Seeding\Edward Ka-Spel\2008-Burning Church\Burning Church (Version Hot).wav

Peak level 100.0 %
Range quality 99.9 %
Test CRC 1964BEEE
Copy CRC 1964BEEE
Copy OK

No errors occurred


AccurateRip summary

Track 1 accurately ripped (confidence 2) [FDD3B63C]

All tracks accurately ripped

End of status report


Edward Ka-Spel: Discography part 06 (2005-2008)

Tracklist CD06. 2008 - Dream Logik Part Two [Beta-Lactam Ring, mt203]:

01. As a Bird / A Missing Piece (08:24)
02. Darkness O (07:48)
03. The Modest Ambitions of Cedric the Centipede (09:20)
04. Under the Junction (05:51)
05. Going My Way? (08:22)
06. New Fool's Moon / The Closet (11:16)
07. My Wandering Star / As A Bird (Part 2) (06:28)

Exact Audio Copy V0.99 prebeta 5 from 4. May 2009

EAC extraction logfile from 24. November 2010, 7:42

Edward Ka-Spel / Dream Logik Part Two

Used drive : LITE-ON DVDRW LH-20A1L Adapter: 2 ID: 0

Read mode : Secure
Utilize accurate stream : Yes
Defeat audio cache : Yes
Make use of C2 pointers : No

Read offset correction : 6
Overread into Lead-In and Lead-Out : No
Fill up missing offset samples with silence : Yes
Delete leading and trailing silent blocks : No
Null samples used in CRC calculations : Yes
Used interface : Installed external ASPI interface

Used output format : Internal WAV Routines
Sample format : 44.100 Hz; 16 Bit; Stereo


TOC of the extracted CD

Track | Start | Length | Start sector | End sector
––––––––––––––––––––––––––––-
1 | 0:00.00 | 8:24.12 | 0 | 37811
2 | 8:24.12 | 7:48.19 | 37812 | 72930
3 | 16:12.31 | 9:19.48 | 72931 | 114903
4 | 25:32.04 | 5:51.19 | 114904 | 141247
5 | 31:23.23 | 8:22.15 | 141248 | 178912
6 | 39:45.38 | 11:15.49 | 178913 | 229586
7 | 51:01.12 | 6:28.11 | 229587 | 258697


Range status and errors

Selected range

Filename Z:\data\mp3\Seeding\Edward Ka-Spel\2008-Dream Logik Part Two\Dream Logik Part Two.wav

Peak level 100.0 %
Range quality 100.0 %
Test CRC 854A7AFE
Copy CRC 854A7AFE
Copy OK

No errors occurred


AccurateRip summary

Track 1 accurately ripped (confidence 1) [1274D8D2]
Track 2 accurately ripped (confidence 1) [C83F4277]
Track 3 accurately ripped (confidence 1) [ED86C7B1]
Track 4 accurately ripped (confidence 1) [FFDF759D]
Track 5 accurately ripped (confidence 1) [92B802E4]
Track 6 accurately ripped (confidence 1) [6B76D043]
Track 7 accurately ripped (confidence 1) [A3699CAB]

All tracks accurately ripped

End of status report


All thanks go to the original releasers

Edward Ka-Spel in my Blog

Download Edward Ka-Spel: Discography part 06 (2005-2008):