Tags
Language
Tags

Edward Higginbottom, New College Choir Oxford - Matthew Locke: Anthems, Motets and Ceremonial Music (2005)

Posted By: ArlegZ
Edward Higginbottom, New College Choir Oxford - Matthew Locke: Anthems, Motets and Ceremonial Music (2005)

Edward Higginbottom, The Parley of Instruments, New College Choir Oxford - Matthew Locke: Anthems, Motets and Ceremonial Music (2005)
EAC | FLAC | Image (Cue & Log) ~ 290 Mb | Total time: 66:59 | Scans included
Classical | Label: Hyperion | # CDH55250 | Recorded: 1989

Matthew Locke, England's leading composer in the 17th century, was also one of the busiest, writing for court, theater, and church. Surprisingly little of his music has been recorded, but this excellent recording helps correct this. The music has a strong emotional character, with dramatic, often pictorial harmonic effects that are less favored by today's choirs, but the quality of these works only makes us wonder why Locke is not better known.
–David Vernier

Performer:
Choir of New College, Oxford
The Parley of Instruments
Edward Higginbottom, conductor

Track List:
Matthew Locke (c.1621-1677)
01. Descende caelo cincta sororibus 'The Oxford Ode'
02. How doth the city sit solitary
03. Super flumina Babylonis
04. O be joyful in the Lord, all ye lands
05. Audi, Domine, clamantes ad te
06. Lord, let me know mine end
07. Jesu, auctor clementie
08. Be thou exalted, Lord


Exact Audio Copy V1.5 from 20. February 2020

EAC extraction logfile from 31. August 2021, 22:52

Choir of New College, Oxford, The Parley of Instruments, Edward Higginbottom / Locke - Anthems, Motets and Ceremonial Music

Used drive : ASUS SDRW-08U7M-U Adapter: 1 ID: 0

Read mode : Secure
Utilize accurate stream : Yes
Defeat audio cache : Yes
Make use of C2 pointers : No

Read offset correction : 6
Overread into Lead-In and Lead-Out : No
Fill up missing offset samples with silence : Yes
Delete leading and trailing silent blocks : No
Null samples used in CRC calculations : Yes
Used interface : Native Win32 interface for Win NT & 2000

Used output format : User Defined Encoder
Selected bitrate : 128 kBit/s
Quality : High
Add ID3 tag : No
Command line compressor : C:\Program Files (x86)\Exact Audio Copy\Flac\flac.exe
Additional command line options : -V -8 -T "Date=%year%" -T "Genre=%genre%" %source%


TOC of the extracted CD

Track | Start | Length | Start sector | End sector
––––––––––––––––––––––––––––-
1 | 0:00.00 | 10:15.35 | 0 | 46159
2 | 10:15.35 | 8:35.32 | 46160 | 84816
3 | 18:50.67 | 12:58.25 | 84817 | 143191
4 | 31:49.17 | 5:24.18 | 143192 | 167509
5 | 37:13.35 | 9:44.37 | 167510 | 211346
6 | 46:57.72 | 8:02.23 | 211347 | 247519
7 | 55:00.20 | 2:11.65 | 247520 | 257409
8 | 57:12.10 | 9:47.02 | 257410 | 301436


Range status and errors

Selected range

Filename C:\temp\CDH55250 - Locke - Anthems, Motets and Ceremonial Music - 2005\Locke - Anthems, Motets and Ceremonial Music.wav

Peak level 98.0 %
Extraction speed 4.6 X
Range quality 99.9 %
Test CRC 0BF37F3C
Copy CRC 0BF37F3C
Copy OK

No errors occurred


AccurateRip summary

Track 1 cannot be verified as accurate (confidence 3) [E9F08186], AccurateRip returned [0F55CED1] (AR v2)
Track 2 cannot be verified as accurate (confidence 3) [ABF43F70], AccurateRip returned [EC37903C] (AR v2)
Track 3 cannot be verified as accurate (confidence 3) [3BCD4D56], AccurateRip returned [46F11755] (AR v2)
Track 4 cannot be verified as accurate (confidence 3) [FB440E51], AccurateRip returned [B94BB078] (AR v2)
Track 5 cannot be verified as accurate (confidence 3) [CEFB1AFD], AccurateRip returned [71E0A14F] (AR v2)
Track 6 cannot be verified as accurate (confidence 3) [425C5BD8], AccurateRip returned [2E392587] (AR v2)
Track 7 cannot be verified as accurate (confidence 3) [5488A3AC], AccurateRip returned [D0E78FC8] (AR v2)
Track 8 cannot be verified as accurate (confidence 3) [B959B0DC], AccurateRip returned [BCA577DE] (AR v2)

No tracks could be verified as accurate
You may have a different pressing from the one(s) in the database

End of status report

==== Log checksum A342532A755A30094C05ACF9B7A734ACC75BEB65CC12D285251496342DAFFD24 ====

Edward Higginbottom, New College Choir Oxford - Matthew Locke: Anthems, Motets and Ceremonial Music (2005)

Thanks to the original releaser