Subcategories

Edward Higginbottom, Oxford Baroque, Choir of New College Oxford - Charpentier: Musique sacrée (2013)

Posted By: ArlegZ
Edward Higginbottom, Oxford Baroque, Choir of New College Oxford - Charpentier: Musique sacrée (2013)

Edward Higginbottom, Oxford Baroque, Choir of New College Oxford - Charpentier: Musique sacrée (2013)
EAC | FLAC | Image (Cue & Log) ~ 341 Mb | Total time: 72:30 | Scans included
Classical | Label: Novum | NCR1387 | Recorded: 2012, 2013

The small string ensemble of Oxford Baroque plays the Praeludium with a juxtaposition of sensuousness and decorum…The choir's interjections are fantastically articulate - with gentle use of inégales, gorgeously shaped ornamental cadences and sincere delivery of the texts.
— Gramophone Magazine

Performer:
Robyn Allegra Parton, soprano
Choir of New College Oxford
Oxford Baroque
Edward Higginbottom, conductor

Track List:
Psalm 15, H. 230, "Conserva me, Domine"
01. Conserva me, Domine
02. Dominus pars haereditatis meae
03. Notas mihi fecisti
Caecilia virgo et martyr octo vocibus, H. 397, "Est secretum, Valeriane"
04. Part I: Praeludium
05. Part I: Est secretum Valeriane quod tibi volo dicere (Caecilia, Valerianus)
06. Part I: Et aquis lustralibus initiatus (Chori Fidelium)
07. Part I: Acceptis autem ab angelo flosculis (Historicus I, Caecilia, Valerianus, Tiburtius)
08. Part I: O Christi fidem profitentium caelestis harmonia! (Chorus)
09. Part II: Praeludium
10. Part II: Cum autem Valeriani et Tiburtii (Historicus II, Almachius, Caecilia)
11. Part II: In his dabit mihi Christus dulce refrigerium (Caecilia, Almachius)
12. Part II: Heu, nos dolentes! (Chorus, 2 Angels)
13. Part II: Nolite flere fideles (Angels)
14. Part II: Eya ergo Caecilidae, cantemus, jubilemus, et exultemus in victoria Caeciliae! (Chorus)
De profundis, H. 189
15. Prelude
16. De profundis clamavi
17. Fiant aures tuae
18. Quia apud te
19. A custodia matutina
20. Et ipse redimet
21. Requiem aeternam


Exact Audio Copy V1.2 from 12. August 2016

EAC extraction logfile from 14. July 2018, 14:46

Edward Higginbottom, Oxford Baroque / Musique sacrée

Used drive : MATSHITADVD-RAM UJ8G6 Adapter: 1 ID: 0

Read mode : Secure
Utilize accurate stream : Yes
Defeat audio cache : Yes
Make use of C2 pointers : No

Read offset correction : 103
Overread into Lead-In and Lead-Out : No
Fill up missing offset samples with silence : Yes
Delete leading and trailing silent blocks : No
Null samples used in CRC calculations : Yes
Used interface : Native Win32 interface for Win NT & 2000

Used output format : User Defined Encoder
Selected bitrate : 768 kBit/s
Quality : High
Add ID3 tag : No
Command line compressor : C:\Program Files (x86)\Exact Audio Copy\Flac\flac.exe
Additional command line options : -6 -V -T "ARTIST=%artist%" -T "TITLE=%title%" -T "ALBUM=%albumtitle%" -T "DATE=%year%" -T "TRACKNUMBER=%tracknr%" -T "GENRE=%genre%" -T "COMMENT=%comment%" -T "BAND=%albuminterpret%" -T "ALBUMARTIST=%albuminterpret%" -T "COMPOSER=%composer%" %haslyrics%–tag-from-file=LYRICS="%lyricsfile%"%haslyrics% -T "DISCNUMBER=%cdnumber%" -T "TOTALDISCS=%totalcds%" -T "TOTALTRACKS=%numtracks%" %hascover%–picture="%coverfile%"%hascover% %source% -o %dest%


TOC of the extracted CD

Track | Start | Length | Start sector | End sector
––––––––––––––––––––––––––––-
1 | 0:00.00 | 5:16.00 | 0 | 23699
2 | 5:16.00 | 4:39.00 | 23700 | 44624
3 | 9:55.00 | 3:35.35 | 44625 | 60784
4 | 13:30.35 | 1:32.41 | 60785 | 67725
5 | 15:03.01 | 3:20.04 | 67726 | 82729
6 | 18:23.05 | 1:51.37 | 82730 | 91091
7 | 20:14.42 | 4:49.06 | 91092 | 112772
8 | 25:03.48 | 2:04.74 | 112773 | 122146
9 | 27:08.47 | 1:25.44 | 122147 | 128565
10 | 28:34.16 | 3:50.74 | 128566 | 145889
11 | 32:25.15 | 3:45.26 | 145890 | 162790
12 | 36:10.41 | 3:56.00 | 162791 | 180490
13 | 40:06.41 | 3:45.15 | 180491 | 197380
14 | 43:51.56 | 4:14.27 | 197381 | 216457
15 | 48:06.08 | 1:38.50 | 216458 | 223857
16 | 49:44.58 | 5:03.63 | 223858 | 246645
17 | 54:48.46 | 5:11.12 | 246646 | 269982
18 | 59:59.58 | 3:00.55 | 269983 | 283537
19 | 63:00.38 | 2:21.62 | 283538 | 294174
20 | 65:22.25 | 1:26.23 | 294175 | 300647
21 | 66:48.48 | 5:41.61 | 300648 | 326283


Range status and errors

Selected range

Filename C:\Users\Roy\Music\CHARPENTIER - Musique sacrée (2013) [Higginbottom\CD (FLAC + CUE)\Marc-Antoine Charpentier - Musique sacrée.wav

Peak level 94.4 %
Extraction speed 4.5 X
Range quality 100.0 %
Test CRC 9E3CC10C
Copy CRC 9E3CC10C
Copy OK

No errors occurred


AccurateRip summary

Track 1 accurately ripped (confidence 1) [A9C9569D] (AR v2)
Track 2 accurately ripped (confidence 1) [171042EC] (AR v2)
Track 3 accurately ripped (confidence 1) [82FF1762] (AR v2)
Track 4 accurately ripped (confidence 1) [B7D01FA3] (AR v2)
Track 5 accurately ripped (confidence 1) [735AED7E] (AR v2)
Track 6 accurately ripped (confidence 1) [B12B3C10] (AR v2)
Track 7 accurately ripped (confidence 1) [31BD16ED] (AR v2)
Track 8 accurately ripped (confidence 1) [239DDBD8] (AR v2)
Track 9 cannot be verified as accurate (confidence 1) [788C2C30], AccurateRip returned [E9289959] (AR v2)
Track 10 cannot be verified as accurate (confidence 1) [F62E64FE], AccurateRip returned [FBE0A650] (AR v2)
Track 11 accurately ripped (confidence 1) [489F809A] (AR v2)
Track 12 cannot be verified as accurate (confidence 1) [2C086F05], AccurateRip returned [4098FE5F] (AR v2)
Track 13 cannot be verified as accurate (confidence 1) [BA51B3AD], AccurateRip returned [A3A42DF8] (AR v2)
Track 14 accurately ripped (confidence 1) [A757DACE] (AR v2)
Track 15 cannot be verified as accurate (confidence 1) [F7910727], AccurateRip returned [6402873D] (AR v2)
Track 16 accurately ripped (confidence 1) [60E2AF19] (AR v2)
Track 17 accurately ripped (confidence 1) [5A98AEA7] (AR v2)
Track 18 accurately ripped (confidence 1) [B005D5C7] (AR v2)
Track 19 accurately ripped (confidence 1) [76E46087] (AR v2)
Track 20 accurately ripped (confidence 1) [4E89B3C0] (AR v2)
Track 21 accurately ripped (confidence 1) [BAD6D2E3] (AR v2)

16 track(s) accurately ripped
5 track(s) could not be verified as accurate

Some tracks could not be verified as accurate

End of status report

–– CUETools DB Plugin V2.1.6

[CTDB TOCID: BBThTD6ACbusn8LI_aR9Q6ZMuAs-] found
Submit result: BBThTD6ACbusn8LI_aR9Q6ZMuAs- has been confirmed
Track | CTDB Status
1 | (1/1) Accurately ripped
2 | (1/1) Accurately ripped
3 | (1/1) Accurately ripped
4 | (1/1) Accurately ripped
5 | (1/1) Accurately ripped
6 | (1/1) Accurately ripped
7 | (1/1) Accurately ripped
8 | (1/1) Accurately ripped
9 | (1/1) Accurately ripped
10 | (1/1) Accurately ripped
11 | (1/1) Accurately ripped
12 | (1/1) Accurately ripped
13 | (1/1) Accurately ripped
14 | (1/1) Accurately ripped
15 | (1/1) Accurately ripped
16 | (1/1) Accurately ripped
17 | (1/1) Accurately ripped
18 | (1/1) Accurately ripped
19 | (1/1) Accurately ripped
20 | (1/1) Accurately ripped
21 | (1/1) Accurately ripped


==== Log checksum C34FF52AD1AEAEC23CB4C114BF81B668DD370E4DB9F8FBEAC687D4618F9FCD75 ====

Edward Higginbottom, Oxford Baroque, Choir of New College Oxford - Charpentier: Musique sacrée (2013)

Thanks to the original releaser