Tags
Language
Tags
June 2024
Su Mo Tu We Th Fr Sa
26 27 28 29 30 31 1
2 3 4 5 6 7 8
9 10 11 12 13 14 15
16 17 18 19 20 21 22
23 24 25 26 27 28 29
30 1 2 3 4 5 6

Ekseption - Bingo (1974)

Posted By: v3122
Ekseption - Bingo (1974)

Ekseption - Bingo (1974)
EAC | Flac(Image) + Cue + Log & MP3 CBR 320Kbps
2019 | Philips 6413 501 | RU | ~ 213 or 94 Mb | Artwork(jpg) -> 2.45 Mb
Fusion, Jazz-Rock, Prog Rock

This record has outstanding, clean and expressive rhythmic trumpet arrangements, a bit in the genre of early Frank Zappa (Grand Wazoo, Waka/Jawaka), but more dynamic, funky and rhythmic: it gives an ambience of winners! there are trumpet, saxophone, clarinet and flute, so that these wind instruments take a huge place in the music. There are also omnipresent & complex electric guitar, keyboards (Fender Rhodes among others) and very elaborated bass & drums. It is jazzy with all the catchy & rhythmic rock elements, plus some progressive tendencies. It is a very joyful music: you play it after a victory, a success or just simply for the joy of feeling happy. It will induce positive and pleasant moods. There are really fast parts, and the music is rather loaded; the omnipresent rhythm is very changing: it is never dull! Hard to believe they are a Dutch band. The sound can be very American funky jazz rock. There are not enough bands like that!
Rating: 4.5 stars

by greenback, progarchives
Ekseption - Bingo (1974)):

Ekseption - Bingo (1974)

Tracklist:

01. From Ekseption
02. Nightwalk
03. Smokey Sunset
04. De Fietser
05. Sabre Dance '74
06. Brother Rabbit
07. Sunny Revival
08. The Death Of Ase
09. Bingo-Bingo

Hans Jansen – Piano, Electric Piano [Rhodes], Organ [Hammond], Harpsichord, Synthesizer [Arp], Percussion
Cor Dekker – Bass
Pieter Voogt – Drums, Percussion
Rein Van Den Broek – Trumpet, Flugelhorn
Dirk Jan Vennik – Soprano Saxophone, Tenor Saxophone, Flute, Clarinet

Hans Hollestelle – Acoustic Guitar, Electric Guitar, Violin [Electric]

Exact Audio Copy V1.3 from 2. September 2016

EAC extraction logfile from 23. December 2019, 17:14

Ekseption (New Formula) / Bingo

Used drive : ASUS DRW-24D5MT Adapter: 1 ID: 0

Read mode : Secure
Utilize accurate stream : Yes
Defeat audio cache : Yes
Make use of C2 pointers : No

Read offset correction : 6
Overread into Lead-In and Lead-Out : No
Fill up missing offset samples with silence : Yes
Delete leading and trailing silent blocks : No
Null samples used in CRC calculations : Yes
Used interface : Native Win32 interface for Win NT & 2000
Gap handling : Appended to previous track

Used output format : User Defined Encoder
Selected bitrate : 1024 kBit/s
Quality : High
Add ID3 tag : No
Command line compressor : C:\Program Files (x86)\Exact Audio Copy\Flac\flac.exe
Additional command line options : -V -8 -T "Genre=%genre%" -T "Artist=%artist%" -T "Title=%title%" -T "Album=%albumtitle%" -T "Date=%year%" -T "Tracknumber=%tracknr%" -T "Comment=%comment%" %source%


TOC of the extracted CD

Track | Start | Length | Start sector | End sector
––––––––––––––––––––––––––––-
1 | 0:00.00 | 9:02.18 | 0 | 40667
2 | 9:02.18 | 3:43.00 | 40668 | 57392
3 | 12:45.18 | 5:02.06 | 57393 | 80048
4 | 17:47.24 | 1:54.59 | 80049 | 88657
5 | 19:42.08 | 2:58.19 | 88658 | 102026
6 | 22:40.27 | 3:27.54 | 102027 | 117605
7 | 26:08.06 | 3:54.00 | 117606 | 135155
8 | 30:02.06 | 2:31.31 | 135156 | 146511
9 | 32:33.37 | 6:59.54 | 146512 | 177990


Track 1

Filename H:\Sket4er\Ekseption (New Formula) – Bingo (1974) 2019\01 From Ekseption.wav

Pre-gap length 0:00:02.00

Peak level 100.0 %
Extraction speed 1.3 X
Track quality 100.0 %
Test CRC 732E63D3
Copy CRC 732E63D3
Track not present in AccurateRip database
Copy OK

Track 2

Filename H:\Sket4er\Ekseption (New Formula) – Bingo (1974) 2019\02 Nightwalk.wav

Peak level 99.8 %
Extraction speed 1.4 X
Track quality 100.0 %
Test CRC 931C69F4
Copy CRC 931C69F4
Track not present in AccurateRip database
Copy OK

Track 3

Filename H:\Sket4er\Ekseption (New Formula) – Bingo (1974) 2019\03 Smokey Sunset.wav

Peak level 99.9 %
Extraction speed 1.4 X
Track quality 99.9 %
Test CRC DEB7FC6F
Copy CRC DEB7FC6F
Track not present in AccurateRip database
Copy OK

Track 4

Filename H:\Sket4er\Ekseption (New Formula) – Bingo (1974) 2019\04 De Fietser.wav

Peak level 100.0 %
Extraction speed 1.4 X
Track quality 100.0 %
Test CRC 57AD23FF
Copy CRC 57AD23FF
Track not present in AccurateRip database
Copy OK

Track 5

Filename H:\Sket4er\Ekseption (New Formula) – Bingo (1974) 2019\05 Sabre Dance '74.wav

Peak level 100.0 %
Extraction speed 1.3 X
Track quality 99.9 %
Test CRC BC68F5A1
Copy CRC BC68F5A1
Track not present in AccurateRip database
Copy OK

Track 6

Filename H:\Sket4er\Ekseption (New Formula) – Bingo (1974) 2019\06 Brother Rabbit.wav

Peak level 100.0 %
Extraction speed 1.6 X
Track quality 100.0 %
Test CRC 5BDAAD0D
Copy CRC 5BDAAD0D
Track not present in AccurateRip database
Copy OK

Track 7

Filename H:\Sket4er\Ekseption (New Formula) – Bingo (1974) 2019\07 Sunny Revival.wav

Peak level 100.0 %
Extraction speed 1.7 X
Track quality 100.0 %
Test CRC F2F8F675
Copy CRC F2F8F675
Track not present in AccurateRip database
Copy OK

Track 8

Filename H:\Sket4er\Ekseption (New Formula) – Bingo (1974) 2019\08 The Death Of Ase.wav

Peak level 99.9 %
Extraction speed 1.4 X
Track quality 99.9 %
Test CRC A933D863
Copy CRC A933D863
Track not present in AccurateRip database
Copy OK

Track 9

Filename H:\Sket4er\Ekseption (New Formula) – Bingo (1974) 2019\09 Bingo-Bingo.wav

Peak level 100.0 %
Extraction speed 2.0 X
Track quality 100.0 %
Test CRC 11109557
Copy CRC 11109557
Track not present in AccurateRip database
Copy OK


None of the tracks are present in the AccurateRip database

No errors occurred

End of status report

–– CUETools DB Plugin V2.1.6

[CTDB TOCID: tESLzMyuP4Uo56FBmPuMxwljNz4-] disk not present in database
Submit result: tESLzMyuP4Uo56FBmPuMxwljNz4- has been uploaded


==== Log checksum D317E2FB391F408935CE5AB56FAC1B5845351B1B4277242F01970407EB03B808 ====


[CUETools log; Date: 12.01.2020 14:07:16; Version: 2.1.6]
[CTDB TOCID: tESLzMyuP4Uo56FBmPuMxwljNz4-] found.
Track | CTDB Status
1 | (1/1) Accurately ripped
2 | (1/1) Accurately ripped
3 | (1/1) Accurately ripped
4 | (1/1) Accurately ripped
5 | (1/1) Accurately ripped
6 | (1/1) Accurately ripped
7 | (1/1) Accurately ripped
8 | (1/1) Accurately ripped
9 | (1/1) Accurately ripped
[AccurateRip ID: 000e6f8c-006532ec-7b094509] disk not present in database.

Track Peak [ CRC32 ] [W/O NULL] [ LOG ]
– 100,0 [E3D3DECD] [E0D7A02F]
01 99,9 [732E63D3] [58715D82] CRC32
02 99,8 [931C69F4] [44A3C31C] CRC32
03 99,9 [DEB7FC6F] [62222161] CRC32
04 100,0 [57AD23FF] [1F5E8D9C] CRC32
05 100,0 [BC68F5A1] [7DCC467F] CRC32
06 100,0 [5BDAAD0D] [A6D1F095] CRC32
07 100,0 [F2F8F675] [CEC8414D] CRC32
08 99,9 [A933D863] [CD8CA8D4] CRC32
09 100,0 [11109557] [FF15F40F] CRC32


Ekseption - Bingo (1974)

All thanks go to Sket4er

Ekseption in my Blog

Download Ekseption - Bingo (1974):