Subcategories

VA – Time-Life Music – AM Gold 1977 (1997)

Posted By: EktorasClub
VA – Time-Life Music – AM Gold 1977 (1997)

VA – Time-Life Music – AM Gold 1977
EAC Rip | Included: EAC Log + CUE + Flac + Covers | Size: 446 MB | RAR files
Release: 1997 | Label: Time Life, Warner Special Products | Number: AM1-24
Style: Funk, Soul, Rock | Stereo | FilePost.com, RapidShare.com

This series started out in 1990 as Super Hits, with each issue having a cartoonish photo/drawing as cover art. There were 20 volumes in the original Super Hits series. In 1995, the series was renamed AM Gold. The first four volumes were reissued using the new series title and a modified version of the cover art work from SUD-05, but that was soon replaced with a second AM Gold cover design that featured a gold record. The Super Hits series used the SUD- prefix, while the AM Gold series used the AM1- prefix. In the late 1990s, the AM1- prefix was replaced with the R834- prefix, but the volumes continued as before. Two AM Gold budget box sets were introduced in the late 1990s, with 12 tracks instead of the usual 18-24. These were meant for retail sales, unlike the normal subscription CDs.
Like Luke Skywalker battling Darth Vader, musician Meco Monardo certainly had the Force with him in 1977-and with a disco beat, no less. Before his dance-oriented arrangements for records such as Gloria Gaynor's Never Can Say Goodbye and Carol Douglas's Doctor's Orders made him one of early disco's hotters producters, the Pennsylvania-born trombone and keyboard player was known in the industry mainly for behind-the-scenes work on commercial jingles. Monardo was so hot, in fact, that after seeing the film Star Wars he called Casablanca/Millennium Records chief Neil Bogart, pichesd him an idea for dressing up the movie's music in mirror-ball-ready disco clothes, and was immediately inked to a deal-without Bogart's hearing even a single note. Faster than you could say "Obi-Wan Kenobi", Meco's STAR WARS THEME/CANTINA BAND skyrocketed to th top of the charts. Another big movie that spawned a No1 hit in 1977 was Car Wash, the sudsy comedy starring Richard Pryor. ....
VA - Time-Life AM Gold 1977
==========================================
01 - Fleetwood Mac - Don't Stop
02 - Linda Ronstadt - It's So Easy
03 - Daryl Hall And John Oates - Rich Girl
04 - Climax Blues Band - Couldn't Get It Right
05 - Al Stewart - Year Of The Cat
06 - Commadores - Easy
07 - Andrew Gold - Lonely Boy
08 - 10Cc - The Things We Do For Love
09 - Dave Mason - We Just Disagree
10 - David Soul - Don't Give Up On Us
11 - Meco - Star Wars Theme~Cantina Band
12 - Rose Royce - Car Wash
13 - Kc And The Sunshine Band - I'm Your Boogie Man
14 - Marilyn Mccoo And Billy Davis Jr. - You Don't Have To Be A Star (To Be In My Show)
15 - Atlanta Rhythm Section - So In To You
16 - Alan O'day - Undercover Angel
17 - Shaun Cassidy - That's Rock 'N' Roll
18 - Kenny Nolan - I Like Dreamin'
19 - Glen Campbell - Southern Nights
20 - Firefall - Just Remember I Love You

Exact Audio Copy V1.0 beta 1 from 15. November 2010

EAC extraction logfile from 10. June 2011, 0:08

Various / Time-Life AM Gold 1977

Used drive : _NEC DVD_RW ND-4550A Adapter: 0 ID: 0

Read mode : Secure
Utilize accurate stream : Yes
Defeat audio cache : Yes
Make use of C2 pointers : No

Read offset correction : 48
Overread into Lead-In and Lead-Out : No
Fill up missing offset samples with silence : Yes
Delete leading and trailing silent blocks : No
Null samples used in CRC calculations : No
Used interface : Native Win32 interface for Win NT & 2000

Used output format : Internal WAV Routines
Sample format : 44.100 Hz; 16 Bit; Stereo


TOC of the extracted CD

Track | Start | Length | Start sector | End sector
––––––––––––––––––––––––––––-
1 | 0:00.00 | 3:13.23 | 0 | 14497
2 | 3:13.23 | 2:29.55 | 14498 | 25727
3 | 5:43.03 | 2:27.72 | 25728 | 36824
4 | 8:11.00 | 3:20.28 | 36825 | 51852
5 | 11:31.28 | 4:39.02 | 51853 | 72779
6 | 16:10.30 | 4:24.25 | 72780 | 92604
7 | 20:34.55 | 4:02.35 | 92605 | 110789
8 | 24:37.15 | 3:32.50 | 110790 | 126739
9 | 28:09.65 | 3:03.33 | 126740 | 140497
10 | 31:13.23 | 3:39.27 | 140498 | 156949
11 | 34:52.50 | 3:37.45 | 156950 | 173269
12 | 38:30.20 | 3:18.20 | 173270 | 188139
13 | 41:48.40 | 4:05.05 | 188140 | 206519
14 | 45:53.45 | 3:54.38 | 206520 | 224107
15 | 49:48.08 | 3:19.57 | 224108 | 239089
16 | 53:07.65 | 3:34.18 | 239090 | 255157
17 | 56:42.08 | 2:55.57 | 255158 | 268339
18 | 59:37.65 | 3:31.58 | 268340 | 284222
19 | 63:09.48 | 3:01.67 | 284223 | 297864
20 | 66:11.40 | 3:13.43 | 297865 | 312382


Range status and errors

Selected range

Filename E:\0003 Upload\VA - Time-Life Music - AM Gold 1970-79\1977\Various - Time-Life AM Gold 1977.wav

Peak level 100.0 %
Extraction speed 0.2 X
Range quality 100.0 %
Copy CRC F656D74F
Copy OK

No errors occurred


AccurateRip summary

Track 1 accurately ripped (confidence 1) [BF27A04C]
Track 2 accurately ripped (confidence 1) [66DD21F0]
Track 3 cannot be verified as accurate (confidence 1) [11A9CD5E], AccurateRip returned [658368F8]
Track 4 accurately ripped (confidence 1) [670C745D]
Track 5 accurately ripped (confidence 1) [6587B6E2]
Track 6 accurately ripped (confidence 1) [E823ECBF]
Track 7 accurately ripped (confidence 1) [EFC4EA0F]
Track 8 accurately ripped (confidence 1) [48EFDE6B]
Track 9 accurately ripped (confidence 1) [1B6C4F28]
Track 10 accurately ripped (confidence 1) [0D48D3DF]
Track 11 accurately ripped (confidence 1) [9A7C4400]
Track 12 accurately ripped (confidence 1) [5A35150D]
Track 13 accurately ripped (confidence 2) [886E28D3]
Track 14 cannot be verified as accurate (confidence 1) [B2E3BC28], AccurateRip returned [00B734AC]
Track 15 accurately ripped (confidence 1) [37E21401]
Track 16 cannot be verified as accurate (confidence 1) [2610EA8C], AccurateRip returned [498943D1]
Track 17 accurately ripped (confidence 2) [AE559396]
Track 18 accurately ripped (confidence 1) [1996BD62]
Track 19 accurately ripped (confidence 1) [70440E0A]
Track 20 accurately ripped (confidence 2) [7C375CBE]

17 track(s) accurately ripped
3 track(s) could not be verified as accurate

Some tracks could not be verified as accurate

End of status report


VA – Time-Life Music – AM Gold 1970
VA – Time-Life Music – AM Gold 1971
VA – Time-Life Music – AM Gold 1972
VA – Time-Life Music – AM Gold 1973
VA – Time-Life Music – AM Gold 1974
VA – Time-Life Music – AM Gold 1975
VA – Time-Life Music – AM Gold 1976
VA – Time-Life Music – AM Gold 1978
VA – Time-Life Music – AM Gold 1979
VA – Time-Life Am Gold - #1 Hits Of The '70s ('75-'79)
VA - Time-Life Am Gold - The Early '70s


––––––––––––––––––––––––-
My Blog Here you can find more fine audio stuff.

VA – Time-Life Music – AM Gold 1977 (1997)


VA – Time-Life Music – AM Gold 1977 (1997)

Files compressed with WinRAR
FilePost
AM Gold 1977

Rapidshare
AM Gold 1977

Password:
EktorasClub

Enjoy!!!