Subcategories

VA - I Love Disco Diamonds Collection Vol. 04

Posted By: EktorasClub
VA - I Love Disco Diamonds Collection Vol. 04

VA - I Love Disco Diamonds Collection Vol. 04
Release: 2001 | Label: Blanco y Negro | Number: MXCD 1129
Genre: Italo Disco | Mono/Stereo: 2 Channel
EAC Rip | Included: EAC Log + CUE + Flac + Full Covers
Size: 585 MB | RAR files | RS.com

VA - I Love Disco Diamonds Collection Vol. 04

Album Notes
"Solid Strangers - Music In The Night", "The Twins - Not the loving kind", "Max Him - No Escape" and more... are the songs which included on the fourth volume of "I Love Disco Diamonds", released in 2001 by Spain's Blanco y Negro label. This is part of one of the most extensive Euro-dance (Italo Disco) series available. Since the series is so extensive, you can bet there's plenty of filler, and that's definitely the case here.
Tracklisting:
01 - Klein & M.B.O. - Dirty Talk
02 - Jules Tropicana - Come On
03 - The Twins - Not the loving kind
04 - Max Him - No Escape
05 - 93rd Superbowl - Forever And One Day
06 - O'Ryan - She's My Queen
07 - Solid Strangers - Music In The Night
08 - Grant Miller - Colder Than Ice
09 - Michael Bedford - More Than A Kiss
10 - Monte - Kristo - Lady Valentine
11 - Green Ice - Gigolσ
12 - De Blanc - Mon Amour
Total Time: 01:15:44

Exact Audio Copy V0.99 prebeta 4 from 23. January 2008

EAC extraction logfile from 4. June 2009, 23:09

Various / I Love Disco Diamonds Vol. 04

Used drive : SO0158T REZ192S Adapter: 3 ID: 0

Read mode : Secure
Utilize accurate stream : Yes
Defeat audio cache : Yes
Make use of C2 pointers : No

Read offset correction : 0
Overread into Lead-In and Lead-Out : No
Fill up missing offset samples with silence : Yes
Delete leading and trailing silent blocks : No
Null samples used in CRC calculations : No
Used interface : Installed external ASPI interface

Used output format : User Defined Encoder
Selected bitrate : 1024 kBit/s
Quality : High
Add ID3 tag : No
Command line compressor : C:\Program Files\Exact Audio Copy\FLAC\FLAC.EXE
Additional command line options : -6 -V -T "ARTIST=%a" -T "TITLE=%t" -T "ALBUM=%g" -T "DATE=%y" -T "TRACKNUMBER=%n" -T "GENRE=%m" -T "COMMENT=%e" %s -o %d


TOC of the extracted CD

Track | Start | Length | Start sector | End sector
––––––––––––––––––––––––––––-
1 | 0:00.00 | 8:26.30 | 0 | 37979
2 | 8:26.30 | 5:53.52 | 37980 | 64506
3 | 14:20.07 | 7:00.13 | 64507 | 96019
4 | 21:20.20 | 6:37.20 | 96020 | 125814
5 | 27:57.40 | 5:50.50 | 125815 | 152114
6 | 33:48.15 | 6:49.07 | 152115 | 182796
7 | 40:37.22 | 5:21.10 | 182797 | 206881
8 | 45:58.32 | 5:35.50 | 206882 | 232056
9 | 51:34.07 | 6:05.15 | 232057 | 259446
10 | 57:39.22 | 5:21.73 | 259447 | 283594
11 | 63:01.20 | 6:52.50 | 283595 | 314544
12 | 69:53.70 | 5:50.40 | 314545 | 340834


Range status and errors

Selected range

Filename L:\0003 Disco - NewWave - 80's\[Disco] VA - I Love Disco Diamonds Collection Vol. 4\Various - I Love Disco Diamonds Vol. 04.wav

Peak level 100.0 %
Range quality 100.0 %
Test CRC 06044097
Copy CRC 06044097
Copy OK

No errors occurred


AccurateRip summary

Track 1 not present in database
Track 2 not present in database
Track 3 not present in database
Track 4 not present in database
Track 5 not present in database
Track 6 not present in database
Track 7 not present in database
Track 8 not present in database
Track 9 not present in database
Track 10 not present in database
Track 11 not present in database
Track 12 not present in database

None of the tracks are present in the AccurateRip database

End of status report

–––––––––––––––––––––––––––-
My Blog you can find more fine audio stuff.
More Lossless you can find in this folder.

VA - I Love Disco Diamonds Collection Vol. 04

Files compressed with WinRAR
Download from RapidShare:
Download

Password:
EktorasClub

Enjoy!!!