Tags
Language
Tags

Elīna Garanča, Camerata Salzburg, Europa Galante, Louis Langrée, Fabio Biondi - Mozart & Vivaldi (2017)

Posted By: ArlegZ
Elīna Garanča, Camerata Salzburg, Europa Galante, Louis Langrée, Fabio Biondi - Mozart & Vivaldi (2017)

Elīna Garanča, Camerata Salzburg, Europa Galante, Louis Langrée, Fabio Biondi - Mozart & Vivaldi (2017)
EAC | FLAC | Image (Cue & Log) ~ 283 Mb | Total time: 62:06 | Scans included
Classical | Label: Erato | 9029590599 | Recorded: 2004, 2005

Richly colourful in Mozart and Vivaldi: Her velvety, versatile timbre makes mezzo-soprano Elına Garanča one of the outstanding singers of the present day, of that there can be no doubt. She followed up her international breakthrough at the Salzburg Festival with two celebrated CD releases in 2005 that laid the foundation of her rich discography: a Mozart recital and the world premiere of Vivaldi’s opera Bajazet. The present album combines the loveliest moments from these recordings.

Performer:
Elīna Garanča, mezzo-soprano
Camerata Academica Salzburg (1-3, 12-14)
Louis Langrée, conductor (1-3, 12-14)
Europa Galante (4-11)
Fabio Biondi, conductor (4-11)
Patrizia Ciofi, soprano (11)
Marijana Mijanovic, mezzo-soprano (11)
Vivica Genaux, mezzo-soprano (11)
David Daniels, countertenor (11)
Ildebrando D'Arcangelo, bass (11)
Frank Braley, piano (14)

Track List:
Wolfgang Amadeus Mozart
01. La clemenza di Tito, K. 621, Act 1: "Deh, se piacer mi vuoi" (Vitellia)
02. Così fan tutte, K. 588, Act 1: "Temerari! … Come scoglio" (Fiordiligi)
03. La finta giardiniera, K. 196, Act 1: "Se l'augellin sen fugge" (Ramiro)
Antonio Vivaldi - Bajazet, RV 703
Act 1 Scene 4
04. No. 4, Aria: "Quel ciglio vezzosetto" (Andronico)
Act 1 Scene 10
05. No. 8, Recitativo accompagnato: "E bella Irene" (Andronico)
06. No. 9, Aria: "Non ho nel sen costanza" (Andronico)
Act 2 Scene 4
07. Recitativo: "Ah disperato Andronico!" (Andronico)
08. No. 12, Aria: "La sorte mia spietata" (Andronico)
Act 3 Scene 4
09. Recitativo: "Lascerò di regnare" (Andronico)
10. No. 21, Aria: "Spesso tra vaghe rose" (Andronico)
Act 3 Scene 11
11. No. 26, Coro: "Coronata di giglie e rose" (Idaspe, Asteria, Irene, Andronico, Tamerlano, Bajazet)
Wolfgang Amadeus Mozart
12. La finta giardiniera, K. 196, Act 3: "Va pure ad altri" (Ramiro)
13. Così fan tutte, K. 588, Act 1: "Ah, scostati!… Smanie implacabili" (Dorabella)
14. Concert Aria, K. 505: "Ch'io mi scordi di te?… Non temer, amato bene"


Exact Audio Copy V1.5 from 20. February 2020

EAC extraction logfile from 9. September 2020, 17:57

Elīna Garanča / Mozart & Vivaldi

Used drive : PIONEER DVD-RW DVR-218L Adapter: 1 ID: 0

Read mode : Secure
Utilize accurate stream : Yes
Defeat audio cache : Yes
Make use of C2 pointers : No

Read offset correction : 6
Overread into Lead-In and Lead-Out : No
Fill up missing offset samples with silence : Yes
Delete leading and trailing silent blocks : No
Null samples used in CRC calculations : Yes
Used interface : Native Win32 interface for Win NT & 2000

Used output format : User Defined Encoder
Selected bitrate : 128 kBit/s
Quality : High
Add ID3 tag : No
Command line compressor : C:\Program Files\Exact Audio Copy\Flac\flac.exe
Additional command line options : -V -8 -T "Date=%year%" -T "Genre=%genre%" %source%


TOC of the extracted CD

Track | Start | Length | Start sector | End sector
––––––––––––––––––––––––––––-
1 | 0:00.00 | 5:54.00 | 0 | 26549
2 | 5:54.00 | 5:50.13 | 26550 | 52812
3 | 11:44.13 | 4:22.71 | 52813 | 72533
4 | 16:07.09 | 6:23.21 | 72534 | 101279
5 | 22:30.30 | 0:45.68 | 101280 | 104722
6 | 23:16.23 | 5:27.38 | 104723 | 129285
7 | 28:43.61 | 0:51.40 | 129286 | 133150
8 | 29:35.26 | 6:13.04 | 133151 | 161129
9 | 35:48.30 | 0:38.10 | 161130 | 163989
10 | 36:26.40 | 7:19.56 | 163990 | 196970
11 | 43:46.21 | 1:33.01 | 196971 | 203946
12 | 45:19.22 | 3:30.54 | 203947 | 219750
13 | 48:50.01 | 3:09.60 | 219751 | 233985
14 | 51:59.61 | 10:03.55 | 233986 | 279265


Range status and errors

Selected range

Filename C:\ArlegZ\Elīna Garanca - Mozart & Vivaldi.wav

Peak level 99.8 %
Extraction speed 2.0 X
Range quality 100.0 %
Test CRC B533B15F
Copy CRC B533B15F
Copy OK

No errors occurred


AccurateRip summary

Track 1 accurately ripped (confidence 4) [16240CAD] (AR v2)
Track 2 accurately ripped (confidence 4) [FE27CA6E] (AR v2)
Track 3 accurately ripped (confidence 4) [2CBF5D94] (AR v2)
Track 4 accurately ripped (confidence 4) [14E900C6] (AR v2)
Track 5 accurately ripped (confidence 4) [1A0E9368] (AR v2)
Track 6 accurately ripped (confidence 4) [6E745610] (AR v2)
Track 7 accurately ripped (confidence 4) [C13A661C] (AR v2)
Track 8 accurately ripped (confidence 4) [F44A8FA4] (AR v2)
Track 9 accurately ripped (confidence 4) [AFC01B28] (AR v2)
Track 10 accurately ripped (confidence 4) [FD9941F0] (AR v2)
Track 11 accurately ripped (confidence 4) [53475792] (AR v2)
Track 12 accurately ripped (confidence 4) [83BD25A4] (AR v2)
Track 13 accurately ripped (confidence 4) [EF587C5D] (AR v2)
Track 14 accurately ripped (confidence 4) [10766C92] (AR v2)

All tracks accurately ripped

End of status report

–– CUETools DB Plugin V2.1.6

[CTDB TOCID: WoyDyppcqRMACVqCR2WT0PvUz1c-] found
Submit result: WoyDyppcqRMACVqCR2WT0PvUz1c- has been confirmed
Track | CTDB Status
1 | (21/21) Accurately ripped
2 | (21/21) Accurately ripped
3 | (21/21) Accurately ripped
4 | (21/21) Accurately ripped
5 | (21/21) Accurately ripped
6 | (21/21) Accurately ripped
7 | (21/21) Accurately ripped
8 | (21/21) Accurately ripped
9 | (21/21) Accurately ripped
10 | (21/21) Accurately ripped
11 | (21/21) Accurately ripped
12 | (21/21) Accurately ripped
13 | (21/21) Accurately ripped
14 | (21/21) Accurately ripped


==== Log checksum B1D3740EFCF93A3C91329111A913F7331316FB293174C2E9C9CA86C78F5F294B ====

Elīna Garanča, Camerata Salzburg, Europa Galante, Louis Langrée, Fabio Biondi - Mozart & Vivaldi (2017)