Tags
Language
Tags

Elinor Frey, Lorenzo Ghielmi - Berlin Sonatas: Abel, J.C.F. Bach, C.P.E. Bach, Benda, Kirnberger, C.H. Graun (2015)

Posted By: ArlegZ
Elinor Frey, Lorenzo Ghielmi - Berlin Sonatas: Abel, J.C.F. Bach, C.P.E. Bach, Benda, Kirnberger, C.H. Graun (2015)

Elinor Frey, Lorenzo Ghielmi - Berlin Sonatas: Abel, J.C.F. Bach, C.P.E. Bach, Benda, Kirnberger, C.H. Graun (2015)
EAC | FLAC | Image (Cue & Log) ~ 376 Mb | Total time: 74:04 | Scans included
Classical | Label: Passacaille | PAS 1006 | Recorded: 2014

Today, the five-string cello is treated as an exotic and rarely-played cousin of the standard cello. However, in the seventeenth and eighteenth centuries it was simply one of the many instruments used in the family of bass violins, and was particularly important for virtuosic sonatas and solos.
The royal courts of mid-eighteenth century Berlin were lively crossroads for some of the greatest musicians of the time. Court musicians and visitors were famous virtuosos performing music full of expressivity and fantasy. In Berlin Sonatas, the sonatas of J.C.F. Bach, C.P.E. Bach, C.F. Abel, Johann Kirnberger, and C.H. Graun each demonstrate the language of Sensibility (Empfindsamkeit): an expression of sadness, anger, wrath, joy, love, and praise. In their music, emotions are fleeting and instantaneous and, above all, the beauty of melody is emphasized. In Berlin in particular (where several court musicians were students of J.S. Bach), sonatas for cello seem liberated, natural, and comprehensible when played on a instrument fit with a fifth string. The five-string cello also allows for the performance of violin caprices by Franz Benda. The works of Berlin Sonatas achieve a great quality of expression of the kind that helped make Berlin composers famous, especially for their rapturous Adagios and tuneful Allegros, each leaving ample space for the performer’s creativity. Elinor Frey, five-string cello and Lorenzo Ghielmi, fortepiano or harpsichord.

Performer:
Elinor Frey, five-string cello
Lorenzo Ghielmi, fortepiano
Marc Vanscheeuwijck, bass violin (15-17)

Track List:
Carl Friedrich Abel (1723-1787)
Cello Sonata In G, WKO 147
01. I. Allegro moderato
02. II. Adagio
03. III. Rondeau
Johann Christoph Friedrich Bach (1732-1795)
Cello Sonata In A, HW 10/3
04. I. Larghetto
05. II. Allegro
06. III. Tempo di minuetto
Carl Philipp Emanuel Bach (1714-1788)
Piano Sonata In G, WQ 62/19
07. I. Allegro assai
08. II. Andante
09. III. Presto
Franz Benda (1709-1786)
10. Progressive Etude # 25 In D Minor
11. Caprice #16 In D
Johann Philipp Kirnberger (1721-1783)
Cello Sonata In C
12. I. Allegro ma non molto
13. II. Adagio
14. III. Cantabile e variazioni
Carl Friedrich Abel (1723-1787)
Cello Sonata In A, WKO 148 ¹
15. I. Allegro moderato
16. II. Adagio
17. III. Tempo di minuetto
Carl Heinrich Graun (1704-1759)
Cello Sonata In C
18. I. Largo
19. II.Poco allegro
20. III. Allegretto


Exact Audio Copy V1.5 from 20. February 2020

EAC extraction logfile from 6. July 2020, 10:45

Elinor Frey, Lorenzo Ghielmi / Berlin Sonatas

Used drive : HL-DT-STBD-RE WH16NS40 Adapter: 1 ID: 0

Read mode : Secure
Utilize accurate stream : Yes
Defeat audio cache : Yes
Make use of C2 pointers : No

Read offset correction : 6
Overread into Lead-In and Lead-Out : No
Fill up missing offset samples with silence : Yes
Delete leading and trailing silent blocks : No
Null samples used in CRC calculations : Yes
Used interface : Native Win32 interface for Win NT & 2000

Used output format : User Defined Encoder
Selected bitrate : 1024 kBit/s
Quality : High
Add ID3 tag : No
Command line compressor : C:\Program Files (x86)\Exact Audio Copy\FLAC\FLAC.EXE
Additional command line options : -6 -V -T "ARTIST=%artist%" -T "TITLE=%title%" -T "ALBUM=%albumtitle%" -T "DATE=%year%" -T "TRACKNUMBER=%tracknr%" -T "GENRE=%genre%" -T "COMMENT=%comment%" -T "BAND=%albuminterpret%" -T "ALBUMARTIST=%albuminterpret%" -T "COMPOSER=%composer%" %haslyrics%–tag-from-file=LYRICS="%lyricsfile%"%haslyrics% -T "DISCNUMBER=%cdnumber%" -T "TOTALDISCS=%totalcds%" -T "TOTALTRACKS=%numtracks%" %hascover%–picture="%coverfile%"%hascover% %source% -o %dest%


TOC of the extracted CD

Track | Start | Length | Start sector | End sector
––––––––––––––––––––––––––––-
1 | 0:00.00 | 4:45.07 | 0 | 21381
2 | 4:45.07 | 1:37.08 | 21382 | 28664
3 | 6:22.15 | 1:58.70 | 28665 | 37584
4 | 8:21.10 | 3:40.71 | 37585 | 54155
5 | 12:02.06 | 4:15.61 | 54156 | 73341
6 | 16:17.67 | 4:09.71 | 73342 | 92087
7 | 20:27.63 | 4:02.68 | 92088 | 110305
8 | 24:30.56 | 3:47.20 | 110306 | 127350
9 | 28:18.01 | 3:22.25 | 127351 | 142525
10 | 31:40.26 | 1:16.05 | 142526 | 148230
11 | 32:56.31 | 3:11.14 | 148231 | 162569
12 | 36:07.45 | 4:16.30 | 162570 | 181799
13 | 40:24.00 | 2:48.56 | 181800 | 194455
14 | 43:12.56 | 8:13.40 | 194456 | 231470
15 | 51:26.21 | 3:05.18 | 231471 | 245363
16 | 54:31.39 | 3:18.62 | 245364 | 260275
17 | 57:50.26 | 2:27.68 | 260276 | 271368
18 | 60:18.19 | 3:26.11 | 271369 | 286829
19 | 63:44.30 | 5:19.66 | 286830 | 310820
20 | 69:04.21 | 4:57.70 | 310821 | 333165


Range status and errors

Selected range

Filename C:\Users\Grant\Desktop\Elinor Frey, Lorenzo Ghielmi - Berlin Sonatas.wav

Peak level 98.9 %
Extraction speed 8.5 X
Range quality 100.0 %
Test CRC A372549D
Copy CRC A372549D
Copy OK

No errors occurred


AccurateRip summary

Track 1 accurately ripped (confidence 10) [B612A866] (AR v2)
Track 2 accurately ripped (confidence 10) [765274E7] (AR v2)
Track 3 accurately ripped (confidence 10) [9D71DBFA] (AR v2)
Track 4 accurately ripped (confidence 10) [47D09EF2] (AR v2)
Track 5 accurately ripped (confidence 10) [BFAC3CFC] (AR v2)
Track 6 accurately ripped (confidence 10) [0080AEDD] (AR v2)
Track 7 accurately ripped (confidence 10) [6B2B6898] (AR v2)
Track 8 accurately ripped (confidence 10) [6C780B66] (AR v2)
Track 9 accurately ripped (confidence 10) [AC92DE03] (AR v2)
Track 10 accurately ripped (confidence 10) [05CCA44E] (AR v2)
Track 11 accurately ripped (confidence 10) [9ADF0AB7] (AR v2)
Track 12 accurately ripped (confidence 10) [C4C3312B] (AR v2)
Track 13 accurately ripped (confidence 10) [69EF45D7] (AR v2)
Track 14 accurately ripped (confidence 10) [543C2EF4] (AR v2)
Track 15 accurately ripped (confidence 10) [E646BCE3] (AR v2)
Track 16 accurately ripped (confidence 10) [D9C4C119] (AR v2)
Track 17 accurately ripped (confidence 10) [162A2291] (AR v2)
Track 18 accurately ripped (confidence 10) [ADDB57A0] (AR v2)
Track 19 accurately ripped (confidence 10) [D77089B0] (AR v2)
Track 20 accurately ripped (confidence 10) [B6666256] (AR v2)

All tracks accurately ripped

End of status report

–– CUETools DB Plugin V2.1.6

[CTDB TOCID: FSgk1mfip8IxIZoPLStpHh6Bin8-] found
Submit result: FSgk1mfip8IxIZoPLStpHh6Bin8- has been confirmed
Track | CTDB Status
1 | (7/7) Accurately ripped
2 | (7/7) Accurately ripped
3 | (7/7) Accurately ripped
4 | (7/7) Accurately ripped
5 | (7/7) Accurately ripped
6 | (7/7) Accurately ripped
7 | (7/7) Accurately ripped
8 | (7/7) Accurately ripped
9 | (7/7) Accurately ripped
10 | (7/7) Accurately ripped
11 | (7/7) Accurately ripped
12 | (7/7) Accurately ripped
13 | (7/7) Accurately ripped
14 | (7/7) Accurately ripped
15 | (7/7) Accurately ripped
16 | (7/7) Accurately ripped
17 | (7/7) Accurately ripped
18 | (7/7) Accurately ripped
19 | (7/7) Accurately ripped
20 | (7/7) Accurately ripped


==== Log checksum 058C74711DDEFB64F7BB1443125492E58528263BA82A7139F4FEA2188A087274 ====

Elinor Frey, Lorenzo Ghielmi - Berlin Sonatas: Abel, J.C.F. Bach, C.P.E. Bach, Benda, Kirnberger, C.H. Graun (2015)

Thanks to the original releaser