Subcategories

Elisabeth Schwarzkopf, George Szell - R. Strauss: Vier Letzte Lieder (1991)

Posted By: tirexiss
Elisabeth Schwarzkopf, George Szell - R. Strauss: Vier Letzte Lieder (1991)

Elisabeth Schwarzkopf, George Szell - R. Strauss: Vier Letzte Lieder (1991)
EAC | FLAC (image+.cue, log) | Covers Included | 63:40 | 310 MB
Genre: Classical, Vocal | Label: EMI Classics | Catalog: 7 47276 2

The sublime and moving culmination of Richard Strauss's love affair with the soprano voice, the Vier letzte Lieder are interpreted by Elizabeth Schwarzkopf with insight, wisdom and gentle radiance. In the early years of his career George Szell was mentored by Richard Strauss himself, and he provides Schwarzkopf with an exquisitely sensitive orchestral context for all sixteen songs in this classic anthology.

Elisabeth Schwarzkopf, George Szell - R. Strauss: Vier Letzte Lieder (1991)

Track List:

01. Vier Letzte Lieder: Fruehling [0:03:40.22]
02. Vier Letzte Lieder: September [0:05:21.15]
03. Vier Letzte Lieder: Beim Schlafengehen [0:05:23.63]
04. Vier Letzte Lieder: Im Abendrot [0:08:25.40]
05. Muttertaendelei, op. 43 No. 2 [0:02:05.70]
06. Waldseligkeit, op. 49 No.1 [0:03:15.57]
07. Zueignung, op. 10 No. 1 [0:01:51.53]
08. Freundliche Vision, op. 48 No. 1 [0:03:07.52]
09. Die heiligen drei Koenige, op. 56 No. 6 [0:06:38.60]
10. Ruhe, meine Seele, op. 27 No. 1 [0:03:53.05]
11. Meinem Kinde, op. 37 No. 3 [0:02:51.23]
12. Wiegenlied, op. 41 No. 1 [0:04:45.55]
13. Morgen, op. 27 No. 4 [0:03:46.15]
14. Das Baechlein, op. 88 No. 1 [0:02:01.67]
15. Das Rosenband, op. 36 No. 1 [0:03:13.35]
16. Winterweihe, op. 48 No. 4 [0:03:18.13]

Performers:
Elisabeth Schwarzkopf - soprano
Radio-Symphonie-Orchester Berlin
London Symphony Orchestra
George Szell – conductor

Exact Audio Copy V1.0 beta 3 from 29. August 2011

EAC extraction logfile from 10. July 2012, 18:57

Richard Strauss / R.Strauss - Vier Letzte Lieder - Schwarzkopf, Szell

Used drive : HL-DT-STDVDRAM GSA-H10A Adapter: 0 ID: 0

Read mode : Secure
Utilize accurate stream : Yes
Defeat audio cache : Yes
Make use of C2 pointers : No

Read offset correction : 667
Overread into Lead-In and Lead-Out : No
Fill up missing offset samples with silence : Yes
Delete leading and trailing silent blocks : No
Null samples used in CRC calculations : Yes
Used interface : Native Win32 interface for Win NT & 2000

Used output format : User Defined Encoder
Selected bitrate : 1024 kBit/s
Quality : High
Add ID3 tag : No
Command line compressor : C:\Program Files\Exact Audio Copy\Flac\flac.exe
Additional command line options : -8 -V -T "TITLE=%title%" -T "ARTIST=%artist%" -T "ALBUMARTIST=%albumartist%" -T "ALBUM=%albumtitle%" -T "DATE=%year%" -T "TRACKNUMBER=%tracknr%" -T "TRACKTOTAL=%numtracks%" -T "GENRE=%genre%" -T "COMMENT=%comment%" -T "PERFORMER=%albuminterpret%" -T "COMPOSER=%composer%" %source% -o %dest%


TOC of the extracted CD

Track | Start | Length | Start sector | End sector
––––––––––––––––––––––––––––-
1 | 0:00.33 | 3:40.22 | 33 | 16554
2 | 3:40.55 | 5:21.15 | 16555 | 40644
3 | 9:01.70 | 5:23.63 | 40645 | 64932
4 | 14:25.58 | 8:25.40 | 64933 | 102847
5 | 22:51.23 | 2:05.70 | 102848 | 112292
6 | 24:57.18 | 3:15.57 | 112293 | 126974
7 | 28:13.00 | 1:51.53 | 126975 | 135352
8 | 30:04.53 | 3:07.52 | 135353 | 149429
9 | 33:12.30 | 6:38.60 | 149430 | 179339
10 | 39:51.15 | 3:53.05 | 179340 | 196819
11 | 43:44.20 | 2:51.23 | 196820 | 209667
12 | 46:35.43 | 4:45.55 | 209668 | 231097
13 | 51:21.23 | 3:46.15 | 231098 | 248062
14 | 55:07.38 | 2:01.67 | 248063 | 257204
15 | 57:09.30 | 3:13.35 | 257205 | 271714
16 | 60:22.65 | 3:18.13 | 271715 | 286577


Range status and errors

Selected range

Filename F:\Ripped general\[0920] R.Strauss - Vier Letzte Lieder - Schwarzkopf, Szell\R.Strauss - Vier Letzte Lieder - Schwarzkopf, Szell.wav

Peak level 86.0 %
Extraction speed 7.5 X
Range quality 100.0 %
Test CRC D9A0F4AB
Copy CRC D9A0F4AB
Copy OK

No errors occurred


AccurateRip summary

Track 1 accurately ripped (confidence 3) [76C6C804] (AR v2)
Track 2 accurately ripped (confidence 3) [05E7F977] (AR v2)
Track 3 accurately ripped (confidence 3) [052714DB] (AR v2)
Track 4 accurately ripped (confidence 3) [209B18F1] (AR v2)
Track 5 accurately ripped (confidence 4) [0B85ACA6] (AR v2)
Track 6 accurately ripped (confidence 4) [ACC79825] (AR v2)
Track 7 accurately ripped (confidence 4) [52557B4E] (AR v2)
Track 8 accurately ripped (confidence 4) [9921A9B2] (AR v2)
Track 9 accurately ripped (confidence 4) [3C87F3BD] (AR v2)
Track 10 accurately ripped (confidence 3) [1837B1BA] (AR v2)
Track 11 accurately ripped (confidence 4) [4275CFD0] (AR v2)
Track 12 accurately ripped (confidence 4) [8343E821] (AR v2)
Track 13 accurately ripped (confidence 4) [B0FEDA95] (AR v2)
Track 14 accurately ripped (confidence 4) [4307C608] (AR v2)
Track 15 accurately ripped (confidence 4) [CF700EAA] (AR v2)
Track 16 accurately ripped (confidence 3) [5A8AB93C] (AR v2)

All tracks accurately ripped

End of status report

Thanks to the Original ripper (unknown)!

Welcome to my blog!

Download: