Subcategories

Ella Fitzgerald - Classic Jazz Archive [Recorded 1935-1946] (2004) (Repost)

Posted By: gribovar
Ella Fitzgerald - Classic Jazz Archive [Recorded 1935-1946] (2004) (Repost)

Ella Fitzgerald - Classic Jazz Archive [Recorded 1935-1946] (2004)
EAC Rip | FLAC (tracks+.cue+log) - 555 MB | MP3 CBR 320 kbps (LAME 3.93) - 323 MB | Covers - 29 MB
Genre: Vocal Jazz | RAR 3% Rec. | Label: Membran Music (222016-306)

Ella Jane Fitzgerald (April 25, 1917 - June 15, 1996) was an American jazz vocalist with a vocal range spanning three octaves. Often referred to as the "First Lady of Song" and the "Queen of Jazz," she was noted for her purity of tone, impeccable diction, phrasing and intonation, and a "horn-like" improvisational ability, particularly in her scat singing. Fitzgerald was a notable interpreter of the Great American Songbook. Over the course of her 60-year recording career, she sold 40 million copies of her 70-plus albums, won 14 Grammy Awards and received during her career many other major awards and honors.
CD 1 Tracklist (A-Tisket, A-Tasket):
01. Love And Kisses
02. Rhythm And Romance
03. Organ Grinder's Swing
04. You Showed Me The Way
05. Cryin' Mood
06. Wake Up And Live
07. Just A Simple Melody
08. Rock It For Me
09. I Want To Be Happy
10. The Dipsy Doodle
11. If Dreams Come True
12. Hallelujah!
13. A-Tisket, A-Tasket
14. I'm Just A Jitterbug
15. Undecided
16. 'Tain't What You Do
17. Don't Worry 'Bout Me
18. Stairway To The Stars
19. Deedle-De-Dum
20. Five O'Clock Whistle
21. My Man
22. I Got It Bad (And That Ain't Good)
23. Can't Help Lovin' Dat Man
24. You Don't Know What Love Is

Total time: 01:14:48

CD 2 Tracklist (Flying Home):
01. Somebody Nobody Loves
02. Make Love To Me
03. I'm Getting Mighty Lonesome For You
04. Cow Cow Boogie
05. Once Too Often
06. Time Alone Will Tell
07. Into Each Life Some Rain Must Fall
08. And Her Tears Flowed Like Wine
09. I'm Confessin'
10. I'm Beginning To See The Light
11. It's Only A Paper Moon
12. (Gonna) Cry You Out Of My Heart
13. A Kiss Goodnight
14. Flying Home
15. Petootie Pie
16. You Won't Be Satisfied (Until You Break My Heart)
17. The Frim Fram Sauce
18. I'm Just A Lucky So And So
19. I Didn't Mean A Word I Said
20. (I Love You) For Sentimental Reasons
21. It's A Pity To Say Goodnight

Total time: 01:02:09

Exact Audio Copy V0.99 prebeta 4 from 23. January 2008

EAC extraction logfile from 11. February 2009, 11:50

Ella Fitzgerald / Classic Jazz Archive (CD 1) (A-Tisket, A-Tasket)

Used drive : TSSTcorpCD/DVDW TS-L532M Adapter: 1 ID: 1

Read mode : Secure
Utilize accurate stream : Yes
Defeat audio cache : Yes
Make use of C2 pointers : No

Read offset correction : 116
Overread into Lead-In and Lead-Out : No
Fill up missing offset samples with silence : Yes
Delete leading and trailing silent blocks : No
Null samples used in CRC calculations : No
Used interface : Native Win32 interface for Win NT & 2000
Gap handling : Appended to previous track

Used output format : User Defined Encoder
Selected bitrate : 1024 kBit/s
Quality : High
Add ID3 tag : No
Command line compressor : C:\Program Files\Exact Audio Copy\FLAC\FLAC.EXE
Additional command line options : -6 -V -T "ARTIST=%a" -T "TITLE=%t" -T "ALBUM=%g" -T "DATE=%y" -T "TRACKNUMBER=%n" -T "GENRE=%m" -T "COMMENT=%e" %s -o %d


TOC of the extracted CD

Track | Start | Length | Start sector | End sector
––––––––––––––––––––––––––––-
1 | 0:00.00 | 3:19.63 | 0 | 14987
2 | 3:19.63 | 3:06.33 | 14988 | 28970
3 | 6:26.21 | 2:49.24 | 28971 | 41669
4 | 9:15.45 | 3:18.16 | 41670 | 56535
5 | 12:33.61 | 2:36.69 | 56536 | 68304
6 | 15:10.55 | 2:39.21 | 68305 | 80250
7 | 17:50.01 | 2:57.19 | 80251 | 93544
8 | 20:47.20 | 3:08.54 | 93545 | 107698
9 | 23:55.74 | 4:30.33 | 107699 | 127981
10 | 28:26.32 | 3:09.54 | 127982 | 142210
11 | 31:36.11 | 2:34.53 | 142211 | 153813
12 | 34:10.64 | 4:04.73 | 153814 | 172186
13 | 38:15.62 | 2:38.49 | 172187 | 184085
14 | 40:54.36 | 3:15.39 | 184086 | 198749
15 | 44:10.00 | 3:19.16 | 198750 | 213690
16 | 47:29.16 | 2:58.12 | 213691 | 227052
17 | 50:27.28 | 3:07.62 | 227053 | 241139
18 | 53:35.15 | 3:17.57 | 241140 | 255971
19 | 56:52.72 | 2:37.58 | 255972 | 267804
20 | 59:30.55 | 3:09.46 | 267805 | 282025
21 | 62:40.26 | 3:00.52 | 282026 | 295577
22 | 65:41.03 | 2:47.40 | 295578 | 308142
23 | 68:28.43 | 2:57.20 | 308143 | 321437
24 | 71:25.63 | 3:22.04 | 321438 | 336591


Track 1

Filename E:\Muzika\Ella Fitzgerald\Classic Jazz Archive (CD 1) (A-Tisket, A-Tasket)\01. Love And Kisses.wav

Pre-gap length 0:00:02.00

Peak level 100.0 %
Track quality 100.0 %
Test CRC DC9B98E6
Copy CRC DC9B98E6
Track not present in AccurateRip database
Copy OK

Track 2

Filename E:\Muzika\Ella Fitzgerald\Classic Jazz Archive (CD 1) (A-Tisket, A-Tasket)\02. Rhythm And Romance.wav

Pre-gap length 0:00:02.00

Peak level 100.0 %
Track quality 100.0 %
Test CRC 82789E3A
Copy CRC 82789E3A
Track not present in AccurateRip database
Copy OK

Track 3

Filename E:\Muzika\Ella Fitzgerald\Classic Jazz Archive (CD 1) (A-Tisket, A-Tasket)\03. Organ Grinder's Swing.wav

Pre-gap length 0:00:02.00

Peak level 100.0 %
Track quality 99.9 %
Test CRC 4C6AF61E
Copy CRC 4C6AF61E
Track not present in AccurateRip database
Copy OK

Track 4

Filename E:\Muzika\Ella Fitzgerald\Classic Jazz Archive (CD 1) (A-Tisket, A-Tasket)\04. You Showed Me The Way.wav

Pre-gap length 0:00:02.00

Peak level 100.0 %
Track quality 99.9 %
Test CRC 7822A317
Copy CRC 7822A317
Track not present in AccurateRip database
Copy OK

Track 5

Filename E:\Muzika\Ella Fitzgerald\Classic Jazz Archive (CD 1) (A-Tisket, A-Tasket)\05. Cryin' Mood.wav

Pre-gap length 0:00:02.00

Peak level 100.0 %
Track quality 100.0 %
Test CRC 3938D559
Copy CRC 3938D559
Track not present in AccurateRip database
Copy OK

Track 6

Filename E:\Muzika\Ella Fitzgerald\Classic Jazz Archive (CD 1) (A-Tisket, A-Tasket)\06. Wake Up And Live.wav

Pre-gap length 0:00:02.00

Peak level 100.0 %
Track quality 100.0 %
Test CRC 2693341F
Copy CRC 2693341F
Track not present in AccurateRip database
Copy OK

Track 7

Filename E:\Muzika\Ella Fitzgerald\Classic Jazz Archive (CD 1) (A-Tisket, A-Tasket)\07. Just A Simple Melody.wav

Pre-gap length 0:00:02.00

Peak level 100.0 %
Track quality 100.0 %
Test CRC F27DFB33
Copy CRC F27DFB33
Track not present in AccurateRip database
Copy OK

Track 8

Filename E:\Muzika\Ella Fitzgerald\Classic Jazz Archive (CD 1) (A-Tisket, A-Tasket)\08. Rock It For Me.wav

Pre-gap length 0:00:02.00

Peak level 100.0 %
Track quality 100.0 %
Test CRC 6CE34FF6
Copy CRC 6CE34FF6
Track not present in AccurateRip database
Copy OK

Track 9

Filename E:\Muzika\Ella Fitzgerald\Classic Jazz Archive (CD 1) (A-Tisket, A-Tasket)\09. I Want To Be Happy.wav

Pre-gap length 0:00:02.00

Peak level 100.0 %
Track quality 100.0 %
Test CRC A31966CA
Copy CRC A31966CA
Track not present in AccurateRip database
Copy OK

Track 10

Filename E:\Muzika\Ella Fitzgerald\Classic Jazz Archive (CD 1) (A-Tisket, A-Tasket)\10. The Dipsy Doodle.wav

Pre-gap length 0:00:02.00

Peak level 100.0 %
Track quality 100.0 %
Test CRC 60E156DF
Copy CRC 60E156DF
Track not present in AccurateRip database
Copy OK

Track 11

Filename E:\Muzika\Ella Fitzgerald\Classic Jazz Archive (CD 1) (A-Tisket, A-Tasket)\11. If Dreams Come True.wav

Pre-gap length 0:00:02.00

Peak level 100.0 %
Track quality 99.9 %
Test CRC E783D539
Copy CRC E783D539
Track not present in AccurateRip database
Copy OK

Track 12

Filename E:\Muzika\Ella Fitzgerald\Classic Jazz Archive (CD 1) (A-Tisket, A-Tasket)\12. Hallelujah!.wav

Pre-gap length 0:00:02.00

Peak level 100.0 %
Track quality 100.0 %
Test CRC 7EF96622
Copy CRC 7EF96622
Track not present in AccurateRip database
Copy OK

Track 13

Filename E:\Muzika\Ella Fitzgerald\Classic Jazz Archive (CD 1) (A-Tisket, A-Tasket)\13. A-Tisket, A-Tasket.wav

Pre-gap length 0:00:02.00

Peak level 100.0 %
Track quality 100.0 %
Test CRC DB56230B
Copy CRC DB56230B
Track not present in AccurateRip database
Copy OK

Track 14

Filename E:\Muzika\Ella Fitzgerald\Classic Jazz Archive (CD 1) (A-Tisket, A-Tasket)\14. I'm Just A Jitterbug.wav

Pre-gap length 0:00:02.00

Peak level 100.0 %
Track quality 100.0 %
Test CRC 95F79312
Copy CRC 95F79312
Track not present in AccurateRip database
Copy OK

Track 15

Filename E:\Muzika\Ella Fitzgerald\Classic Jazz Archive (CD 1) (A-Tisket, A-Tasket)\15. Undecided.wav

Pre-gap length 0:00:02.00

Peak level 100.0 %
Track quality 99.9 %
Test CRC 00E882C7
Copy CRC 00E882C7
Track not present in AccurateRip database
Copy OK

Track 16

Filename E:\Muzika\Ella Fitzgerald\Classic Jazz Archive (CD 1) (A-Tisket, A-Tasket)\16. 'Tain't What You Do.wav

Pre-gap length 0:00:02.00

Peak level 100.0 %
Track quality 100.0 %
Test CRC 19D7A1D5
Copy CRC 19D7A1D5
Track not present in AccurateRip database
Copy OK

Track 17

Filename E:\Muzika\Ella Fitzgerald\Classic Jazz Archive (CD 1) (A-Tisket, A-Tasket)\17. Don't Worry 'Bout Me.wav

Pre-gap length 0:00:02.00

Peak level 100.0 %
Track quality 100.0 %
Test CRC EB5951CA
Copy CRC EB5951CA
Track not present in AccurateRip database
Copy OK

Track 18

Filename E:\Muzika\Ella Fitzgerald\Classic Jazz Archive (CD 1) (A-Tisket, A-Tasket)\18. Stairway To The Stars.wav

Pre-gap length 0:00:02.00

Peak level 100.0 %
Track quality 100.0 %
Test CRC B71D93A1
Copy CRC B71D93A1
Track not present in AccurateRip database
Copy OK

Track 19

Filename E:\Muzika\Ella Fitzgerald\Classic Jazz Archive (CD 1) (A-Tisket, A-Tasket)\19. Deedle-De-Dum.wav

Pre-gap length 0:00:02.00

Peak level 100.0 %
Track quality 100.0 %
Test CRC 760621D5
Copy CRC 760621D5
Track not present in AccurateRip database
Copy OK

Track 20

Filename E:\Muzika\Ella Fitzgerald\Classic Jazz Archive (CD 1) (A-Tisket, A-Tasket)\20. Five O'Clock Whistle.wav

Pre-gap length 0:00:02.00

Peak level 100.0 %
Track quality 99.9 %
Test CRC AFF30690
Copy CRC AFF30690
Track not present in AccurateRip database
Copy OK

Track 21

Filename E:\Muzika\Ella Fitzgerald\Classic Jazz Archive (CD 1) (A-Tisket, A-Tasket)\21. My Man.wav

Pre-gap length 0:00:02.00

Peak level 100.0 %
Track quality 100.0 %
Test CRC 281F6FD6
Copy CRC 281F6FD6
Track not present in AccurateRip database
Copy OK

Track 22

Filename E:\Muzika\Ella Fitzgerald\Classic Jazz Archive (CD 1) (A-Tisket, A-Tasket)\22. I Got It Bad (And That Ain't Good).wav

Pre-gap length 0:00:02.00

Peak level 100.0 %
Track quality 100.0 %
Test CRC 55F64699
Copy CRC 55F64699
Track not present in AccurateRip database
Copy OK

Track 23

Filename E:\Muzika\Ella Fitzgerald\Classic Jazz Archive (CD 1) (A-Tisket, A-Tasket)\23. Can't Help Lovin' Dat Man.wav

Pre-gap length 0:00:02.00

Peak level 100.0 %
Track quality 100.0 %
Test CRC 5539DC42
Copy CRC 5539DC42
Track not present in AccurateRip database
Copy OK

Track 24

Filename E:\Muzika\Ella Fitzgerald\Classic Jazz Archive (CD 1) (A-Tisket, A-Tasket)\24. You Don't Know What Love Is.wav

Pre-gap length 0:00:02.00

Peak level 100.0 %
Track quality 100.0 %
Test CRC A1FFBF15
Copy CRC A1FFBF15
Track not present in AccurateRip database
Copy OK


None of the tracks are present in the AccurateRip database

No errors occurred

End of status report

[CUETools log; Date: 31.08.2018 17:01:38; Version: 2.1.4]
[CTDB TOCID: X17neUcHj0ONxhygsLvpSaaR_Cw-] found.
Track | CTDB Status
1 | (4/4) Accurately ripped
2 | (4/4) Accurately ripped
3 | (4/4) Accurately ripped
4 | (4/4) Accurately ripped
5 | (4/4) Accurately ripped
6 | (4/4) Accurately ripped
7 | (4/4) Accurately ripped
8 | (4/4) Accurately ripped
9 | (4/4) Accurately ripped
10 | (4/4) Accurately ripped
11 | (4/4) Accurately ripped
12 | (4/4) Accurately ripped
13 | (4/4) Accurately ripped
14 | (4/4) Accurately ripped
15 | (4/4) Accurately ripped
16 | (4/4) Accurately ripped
17 | (4/4) Accurately ripped
18 | (4/4) Accurately ripped
19 | (4/4) Accurately ripped
20 | (4/4) Accurately ripped
21 | (4/4) Accurately ripped
22 | (4/4) Accurately ripped
23 | (4/4) Accurately ripped
24 | (4/4) Accurately ripped
[AccurateRip ID: 00406611-045d4c16-5f118718] found.
Track [ CRC | V2 ] Status
01 [e3399905|9c5fc3ac] (0+2/2) Accurately ripped
02 [c6a2d1b5|7630c334] (0+2/2) Accurately ripped
03 [a5a30a4c|c1c35396] (0+2/2) Accurately ripped
04 [d77fad98|e1829291] (0+2/2) Accurately ripped
05 [5ff10dc7|1e434f45] (0+2/2) Accurately ripped
06 [fb6a3077|02a3c0a5] (0+2/2) Accurately ripped
07 [43758583|3c1b6f5c] (0+2/2) Accurately ripped
08 [46afdad1|d97595dd] (0+2/2) Accurately ripped
09 [46b03d1f|1e73e5b3] (0+2/2) Accurately ripped
10 [459d0519|bd28764f] (0+2/2) Accurately ripped
11 [c40f260c|70508af1] (0+2/2) Accurately ripped
12 [ac1e2609|73083efb] (0+2/2) Accurately ripped
13 [30061d0f|b00d167b] (0+2/2) Accurately ripped
14 [ba7a3567|9f3c4515] (0+2/2) Accurately ripped
15 [94e40797|f42a0fb8] (0+2/2) Accurately ripped
16 [425258e3|5a9eb503] (0+2/2) Accurately ripped
17 [fc6e4824|625e280a] (0+2/2) Accurately ripped
18 [e1350fc9|f7703ffa] (0+2/2) Accurately ripped
19 [1ec4fae2|e7fac61a] (0+2/2) Accurately ripped
20 [6677b182|a9850d97] (0+2/2) Accurately ripped
21 [65eb2752|646574e5] (0+2/2) Accurately ripped
22 [cd3cf2fc|bbcf56d0] (0+2/2) Accurately ripped
23 [6185887e|e70c8f00] (0+2/2) Accurately ripped
24 [4d8b9c0a|6208ddcc] (0+2/2) Accurately ripped

Track Peak [ CRC32 ] [W/O NULL] [ LOG ]
– 100,0 [8A9B258B] [BF89D346]
01 99,9 [8858D282] [DC9B98E6] W/O NULL
02 99,9 [679CAF0D] [82789E3A] W/O NULL
03 100,0 [B07FB712] [4C6AF61E] W/O NULL
04 99,9 [2475CDA8] [7822A317] W/O NULL
05 99,9 [8E26DCA7] [3938D559] W/O NULL
06 99,9 [CDFF2C65] [2693341F] W/O NULL
07 99,9 [10CAB532] [F27DFB33] W/O NULL
08 99,9 [85F2B5A0] [6CE34FF6] W/O NULL
09 100,0 [A17C0B48] [A31966CA] W/O NULL
10 100,0 [5D682BBC] [60E156DF] W/O NULL
11 100,0 [C086F081] [E783D539] W/O NULL
12 100,0 [6D37AB06] [7EF96622] W/O NULL
13 100,0 [CCD12465] [DB56230B] W/O NULL
14 100,0 [4D3B8001] [95F79312] W/O NULL
15 99,9 [AC497C9E] [00E882C7] W/O NULL
16 99,9 [97901173] [19D7A1D5] W/O NULL
17 100,0 [51D9BCF4] [EB5951CA] W/O NULL
18 99,9 [E7F60A34] [B71D93A1] W/O NULL
19 99,9 [88C3F8B6] [760621D5] W/O NULL
20 100,0 [5881EFC8] [AFF30690] W/O NULL
21 99,9 [8273A835] [281F6FD6] W/O NULL
22 99,9 [604004D1] [55F64699] W/O NULL
23 99,9 [28EB9CA7] [5539DC42] W/O NULL
24 99,9 [B443C131] [A1FFBF15] W/O NULL

Exact Audio Copy V0.99 prebeta 4 from 23. January 2008

EAC extraction logfile from 11. February 2009, 13:09

Ella Fitzgerald / Classic Jazz Archive (CD 2) (Flying Home)

Used drive : TSSTcorpCD/DVDW TS-L532M Adapter: 1 ID: 1

Read mode : Secure
Utilize accurate stream : Yes
Defeat audio cache : Yes
Make use of C2 pointers : No

Read offset correction : 116
Overread into Lead-In and Lead-Out : No
Fill up missing offset samples with silence : Yes
Delete leading and trailing silent blocks : No
Null samples used in CRC calculations : No
Used interface : Native Win32 interface for Win NT & 2000
Gap handling : Appended to previous track

Used output format : User Defined Encoder
Selected bitrate : 1024 kBit/s
Quality : High
Add ID3 tag : No
Command line compressor : C:\Program Files\Exact Audio Copy\FLAC\FLAC.EXE
Additional command line options : -6 -V -T "ARTIST=%a" -T "TITLE=%t" -T "ALBUM=%g" -T "DATE=%y" -T "TRACKNUMBER=%n" -T "GENRE=%m" -T "COMMENT=%e" %s -o %d


TOC of the extracted CD

Track | Start | Length | Start sector | End sector
––––––––––––––––––––––––––––-
1 | 0:00.00 | 3:11.44 | 0 | 14368
2 | 3:11.44 | 2:47.73 | 14369 | 26966
3 | 5:59.42 | 2:43.60 | 26967 | 39251
4 | 8:43.27 | 2:54.34 | 39252 | 52335
5 | 11:37.61 | 2:57.72 | 52336 | 65682
6 | 14:35.58 | 3:07.60 | 65683 | 79767
7 | 17:43.43 | 3:08.31 | 79768 | 93898
8 | 20:51.74 | 3:15.48 | 93899 | 108571
9 | 24:07.47 | 3:23.72 | 108572 | 123868
10 | 27:31.44 | 2:44.01 | 123869 | 136169
11 | 30:15.45 | 2:41.57 | 136170 | 148301
12 | 32:57.27 | 2:47.42 | 148302 | 160868
13 | 35:44.69 | 3:07.27 | 160869 | 174920
14 | 38:52.21 | 2:29.19 | 174921 | 186114
15 | 41:21.40 | 2:37.63 | 186115 | 197952
16 | 43:59.28 | 2:54.56 | 197953 | 211058
17 | 46:54.09 | 3:12.52 | 211059 | 225510
18 | 50:06.61 | 2:55.25 | 225511 | 238660
19 | 53:02.11 | 3:18.65 | 238661 | 253575
20 | 56:21.01 | 3:10.02 | 253576 | 267827
21 | 59:31.03 | 2:37.54 | 267828 | 279656


Track 1

Filename E:\Muzika\Ella Fitzgerald\Classic Jazz Archive (CD 2) (Flying Home)\01. Somebody Nobody Loves.wav

Pre-gap length 0:00:02.00

Peak level 100.0 %
Track quality 99.9 %
Test CRC 58784896
Copy CRC 58784896
Track not present in AccurateRip database
Copy OK

Track 2

Filename E:\Muzika\Ella Fitzgerald\Classic Jazz Archive (CD 2) (Flying Home)\02. Make Love To Me.wav

Pre-gap length 0:00:02.00

Peak level 100.0 %
Track quality 100.0 %
Test CRC F65D4796
Copy CRC F65D4796
Track not present in AccurateRip database
Copy OK

Track 3

Filename E:\Muzika\Ella Fitzgerald\Classic Jazz Archive (CD 2) (Flying Home)\03. I'm Getting Mighty Lonesome For You.wav

Pre-gap length 0:00:02.00

Peak level 100.0 %
Track quality 100.0 %
Test CRC 8E5C3B28
Copy CRC 8E5C3B28
Track not present in AccurateRip database
Copy OK

Track 4

Filename E:\Muzika\Ella Fitzgerald\Classic Jazz Archive (CD 2) (Flying Home)\04. Cow Cow Boogie.wav

Pre-gap length 0:00:02.00

Peak level 100.0 %
Track quality 100.0 %
Test CRC 57ED36C2
Copy CRC 57ED36C2
Track not present in AccurateRip database
Copy OK

Track 5

Filename E:\Muzika\Ella Fitzgerald\Classic Jazz Archive (CD 2) (Flying Home)\05. Once Too Often.wav

Pre-gap length 0:00:02.00

Peak level 100.0 %
Track quality 99.9 %
Test CRC 0C437B6C
Copy CRC 0C437B6C
Track not present in AccurateRip database
Copy OK

Track 6

Filename E:\Muzika\Ella Fitzgerald\Classic Jazz Archive (CD 2) (Flying Home)\06. Time Alone Will Tell.wav

Pre-gap length 0:00:02.00

Peak level 100.0 %
Track quality 100.0 %
Test CRC AAA322C7
Copy CRC AAA322C7
Track not present in AccurateRip database
Copy OK

Track 7

Filename E:\Muzika\Ella Fitzgerald\Classic Jazz Archive (CD 2) (Flying Home)\07. Into Each Life Some Rain Must Fall.wav

Pre-gap length 0:00:02.00

Peak level 100.0 %
Track quality 100.0 %
Test CRC CA9CA578
Copy CRC CA9CA578
Track not present in AccurateRip database
Copy OK

Track 8

Filename E:\Muzika\Ella Fitzgerald\Classic Jazz Archive (CD 2) (Flying Home)\08. And Her Tears Flowed Like Wine.wav

Pre-gap length 0:00:02.00

Peak level 100.0 %
Track quality 100.0 %
Test CRC D2FE1BB1
Copy CRC D2FE1BB1
Track not present in AccurateRip database
Copy OK

Track 9

Filename E:\Muzika\Ella Fitzgerald\Classic Jazz Archive (CD 2) (Flying Home)\09. I'm Confessin'.wav

Pre-gap length 0:00:02.00

Peak level 100.0 %
Track quality 100.0 %
Test CRC B882B2BC
Copy CRC B882B2BC
Track not present in AccurateRip database
Copy OK

Track 10

Filename E:\Muzika\Ella Fitzgerald\Classic Jazz Archive (CD 2) (Flying Home)\10. I'm Beginning To See The Light.wav

Pre-gap length 0:00:02.00

Peak level 100.0 %
Track quality 99.9 %
Test CRC E49C3A08
Copy CRC E49C3A08
Track not present in AccurateRip database
Copy OK

Track 11

Filename E:\Muzika\Ella Fitzgerald\Classic Jazz Archive (CD 2) (Flying Home)\11. It's Only A Paper Moon.wav

Pre-gap length 0:00:02.00

Peak level 100.0 %
Track quality 100.0 %
Test CRC 301D49C7
Copy CRC 301D49C7
Track not present in AccurateRip database
Copy OK

Track 12

Filename E:\Muzika\Ella Fitzgerald\Classic Jazz Archive (CD 2) (Flying Home)\12. (Gonna) Cry You Out Of My Heart.wav

Pre-gap length 0:00:02.00

Peak level 100.0 %
Track quality 100.0 %
Test CRC 2FDCD7FC
Copy CRC 2FDCD7FC
Track not present in AccurateRip database
Copy OK

Track 13

Filename E:\Muzika\Ella Fitzgerald\Classic Jazz Archive (CD 2) (Flying Home)\13. A Kiss Goodnight.wav

Pre-gap length 0:00:02.00

Peak level 100.0 %
Track quality 100.0 %
Test CRC B2779D8F
Copy CRC B2779D8F
Track not present in AccurateRip database
Copy OK

Track 14

Filename E:\Muzika\Ella Fitzgerald\Classic Jazz Archive (CD 2) (Flying Home)\14. Flying Home.wav

Pre-gap length 0:00:02.00

Peak level 99.9 %
Track quality 100.0 %
Test CRC 97B1005D
Copy CRC 97B1005D
Track not present in AccurateRip database
Copy OK

Track 15

Filename E:\Muzika\Ella Fitzgerald\Classic Jazz Archive (CD 2) (Flying Home)\15. Petootie Pie.wav

Pre-gap length 0:00:02.00

Peak level 100.0 %
Track quality 100.0 %
Test CRC 3FD4DC5C
Copy CRC 3FD4DC5C
Track not present in AccurateRip database
Copy OK

Track 16

Filename E:\Muzika\Ella Fitzgerald\Classic Jazz Archive (CD 2) (Flying Home)\16. You Won't Be Satisfied (Until You Break My Heart).wav

Pre-gap length 0:00:02.00

Peak level 100.0 %
Track quality 100.0 %
Test CRC E5DB0A3E
Copy CRC E5DB0A3E
Track not present in AccurateRip database
Copy OK

Track 17

Filename E:\Muzika\Ella Fitzgerald\Classic Jazz Archive (CD 2) (Flying Home)\17. The Frim Fram Sauce.wav

Pre-gap length 0:00:02.00

Peak level 100.0 %
Track quality 100.0 %
Test CRC 02CDCB4E
Copy CRC 02CDCB4E
Track not present in AccurateRip database
Copy OK

Track 18

Filename E:\Muzika\Ella Fitzgerald\Classic Jazz Archive (CD 2) (Flying Home)\18. I'm Just A Lucky So And So.wav

Pre-gap length 0:00:02.00

Peak level 100.0 %
Track quality 99.9 %
Test CRC FB9F1ED7
Copy CRC FB9F1ED7
Track not present in AccurateRip database
Copy OK

Track 19

Filename E:\Muzika\Ella Fitzgerald\Classic Jazz Archive (CD 2) (Flying Home)\19. I Didn't Mean A Word I Said.wav

Pre-gap length 0:00:02.00

Peak level 100.0 %
Track quality 100.0 %
Test CRC 58CB9F85
Copy CRC 58CB9F85
Track not present in AccurateRip database
Copy OK

Track 20

Filename E:\Muzika\Ella Fitzgerald\Classic Jazz Archive (CD 2) (Flying Home)\20. (I Love You) For Sentimental Reasons.wav

Pre-gap length 0:00:02.00

Peak level 100.0 %
Track quality 100.0 %
Test CRC 84072045
Copy CRC 84072045
Track not present in AccurateRip database
Copy OK

Track 21

Filename E:\Muzika\Ella Fitzgerald\Classic Jazz Archive (CD 2) (Flying Home)\21. It's A Pity To Say Goodnight.wav

Pre-gap length 0:00:02.00

Peak level 100.0 %
Track quality 99.9 %
Test CRC A37219B6
Copy CRC A37219B6
Track not present in AccurateRip database
Copy OK


None of the tracks are present in the AccurateRip database

No errors occurred

End of status report

[CUETools log; Date: 31.08.2018 17:02:10; Version: 2.1.4]
[CTDB TOCID: u38kqlrvIl3HR80bzvbXZo14IoE-] found.
Track | CTDB Status
1 | (4/4) Accurately ripped
2 | (4/4) Accurately ripped
3 | (4/4) Accurately ripped
4 | (4/4) Accurately ripped
5 | (4/4) Accurately ripped
6 | (4/4) Accurately ripped
7 | (4/4) Accurately ripped
8 | (4/4) Accurately ripped
9 | (4/4) Accurately ripped
10 | (4/4) Accurately ripped
11 | (4/4) Accurately ripped
12 | (4/4) Accurately ripped
13 | (4/4) Accurately ripped
14 | (4/4) Accurately ripped
15 | (4/4) Accurately ripped
16 | (4/4) Accurately ripped
17 | (4/4) Accurately ripped
18 | (4/4) Accurately ripped
19 | (4/4) Accurately ripped
20 | (4/4) Accurately ripped
21 | (4/4) Accurately ripped
[AccurateRip ID: 002f1419-02d10c54-3d0e9015] found.
Track [ CRC | V2 ] Status
01 [279b68aa|7953ea4a] (0+2/2) Accurately ripped
02 [19f3ea20|8ebbf152] (0+2/2) Accurately ripped
03 [1b3c96f7|738b4114] (0+2/2) Accurately ripped
04 [cc7c161a|8511478a] (0+2/2) Accurately ripped
05 [f5372ae3|ff3c12c9] (0+2/2) Accurately ripped
06 [5741baa9|8c7495f0] (0+2/2) Accurately ripped
07 [2a403442|4e2a93a3] (0+2/2) Accurately ripped
08 [8aac63fb|a40c701b] (0+2/2) Accurately ripped
09 [1d187aa2|9a3bdfa5] (0+2/2) Accurately ripped
10 [ba6a8d7f|8707f6b2] (0+2/2) Accurately ripped
11 [5d36487f|7096759b] (0+2/2) Accurately ripped
12 [c1f826de|afa0429d] (0+2/2) Accurately ripped
13 [d00ed1c0|9c35ee4c] (0+2/2) Accurately ripped
14 [54946965|51f828f2] (0+2/2) Accurately ripped
15 [32ded417|39a194c5] (0+2/2) Accurately ripped
16 [001b88ab|6d529611] (0+2/2) Accurately ripped
17 [8e1920bf|413736fe] (0+2/2) Accurately ripped
18 [8a21f213|a5c0d073] (0+2/2) Accurately ripped
19 [bfdf128b|768eb7c3] (0+2/2) Accurately ripped
20 [f0f38c33|36cd8610] (0+2/2) Accurately ripped
21 [e640eea6|73c78cde] (0+2/2) Accurately ripped

Track Peak [ CRC32 ] [W/O NULL] [ LOG ]
– 100,0 [D9456AEB] [B18E3DAE]
01 99,9 [44E704A3] [58784896] W/O NULL
02 100,0 [77AECBD0] [F65D4796] W/O NULL
03 99,9 [1B94CE7B] [8E5C3B28] W/O NULL
04 99,9 [3C7E90EB] [57ED36C2] W/O NULL
05 99,9 [33005EDC] [0C437B6C] W/O NULL
06 99,9 [51AF610B] [AAA322C7] W/O NULL
07 99,9 [6DFCBD8F] [CA9CA578] W/O NULL
08 100,0 [A6D99FFF] [D2FE1BB1] W/O NULL
09 100,0 [355A6C52] [B882B2BC] W/O NULL
10 99,9 [DCD5A2DF] [E49C3A08] W/O NULL
11 100,0 [C40D08D9] [301D49C7] W/O NULL
12 99,9 [78CE1BD3] [2FDCD7FC] W/O NULL
13 100,0 [88BFFEB8] [B2779D8F] W/O NULL
14 99,9 [B3083E82] [97B1005D] W/O NULL
15 100,0 [0C66A407] [3FD4DC5C] W/O NULL
16 99,9 [21537569] [E5DB0A3E] W/O NULL
17 100,0 [29DF53FF] [02CDCB4E] W/O NULL
18 100,0 [87E03A0A] [FB9F1ED7] W/O NULL
19 100,0 [E1A37831] [58CB9F85] W/O NULL
20 99,9 [41A9FBDF] [84072045] W/O NULL
21 99,9 [B48E2830] [A37219B6] W/O NULL

Thanks to the original releaser

See also:

Ella Fitzgerald - The Complete Ella Fitzgerald Song Books (1956-1964) [16CD Box Set] (1993)
Ella Fitzgerald - Ella Wishes You A Swinging Christmas (1960) [Reissue 2002]
Ella Fitzgerald - Clap Hands, Here Comes Charlie! (1961)
Ella Fitzgerald - Ella In Hollywood (1961) [Reissue 2009]
Ella Fitzgerald - Ella Swings Gently With Nelson (1962) [Reissue 1993]
Ella Fitzgerald & Count Basie - On The Sunny Side Of The Street (1963)
Ella Fitzgerald - These Are The Blues (1963)
Ella Fitzgerald - Ella In Hamburg (1965) [Reissue 2007]
Ella Fitzgerald - Ella Fitzgerald's Christmas (1967) [Reissue 1990]
Ella Fitzgerald & Joe Pass - Take Love Easy (1974) [Reissue 1997]
Ella Fitzgerald - Ella in London (1974)
Ella Fitzgerald - At The Montreux Jazz Festival 1975 (1975) [Reissue 1993]
Ella Fitzgerald & Cole Porter - Dream Dancing (1978) [Reissue 2002]
Ella Fitzgerald - Fine and Mellow (1979)
Ella Fitzgerald & Count Basie - A Perfect Match (1979)
Ella Fitzgerald & Count Basie - A Classy Pair (1979)
Ella Fitzgerald - The Best Is Yet to Come (1982) [Reissue 1996]
Ella Fitzgerald and Andre Previn - Nice Work If You Can Get It (1983)
Ella Fitzgerald & Duke Ellington - The Stockholm Concert, 1966 (1984)
Ella Fitzgerald & Louis Armstrong - Verve Jazz Masters 24 (1994)
Ella Fitzgerald - The Concert Years [4CD Box Set] (1994)
Ella Fitzgerald - Bluella: Ella Fitzgerald Sings the Blues [Recorded 1953-1979] (1996)
Ella Fitzgerald - In Budapest [Recorded 1970] (1999)
Ella Fitzgerald - Complete 1940 NBC Broadcasts (2006)
Ella Fitzgerald - Live At Mister Kelly's [Recorded 1958] (2007)
Duke Ellington & Ella Fitzgerald - Duke & Ella In Concerto [Recorded 1966] (1993)