Subcategories

Ella Fitzgerald - The Early Years - Part 2 [Recorded 1939-1941] (1993)

Posted By: gribovar
Ella Fitzgerald - The Early Years - Part 2 [Recorded 1939-1941] (1993)

Ella Fitzgerald - The Early Years - Part 2 [Recorded 1939-1941] (1993)
EAC Rip | FLAC (image+.cue+log) - 354 MB | MP3 CBR 320 kbps (LAME 3.93) - 291 MB | Covers - 25 MB
Genre: Vocal Jazz | RAR 3% Rec. | Label: Decca/GRP Records (GRD-2-623)

GRP on this two-CD set reissues 42 of the 69 recordings that Ella Fitzgerald cut during a two-and-one-half-year period. Not as valuable as the European Classics "complete" series, this set does give one a good introduction to the classic singer's music during a time when she led Chick Webb's Orchestra after the drummer's death. Highlights include "Undecided," "Don't Worry About Me," "Stairway to the Stars," "Taking a Chance on Love," "The One I Love" and "Can't Help Lovin' Dat Man"; the medium-tempo novelties are less significant.
CD 1 Tracklist:
01. Undecided
02. 'Tain't What You Do (It's The Way That Cha Do It)
03. My Heart Belongs To Daddy
04. Chew-Chew-Chew (Chew Your Bubble Gum)
05. Don't Worry 'Bout Me
06. If You Ever Change Your Mind
07. Little White Lies
08. Coochi-Coochi-Coo
09. Betcha Nickel
10. Stairway To The Stars
11. I Want The Waiter (With The Water)
12. Out Of Nowhere
13. My Last Goodbye
14. Billy (I Always Dream Of Billy)
15. You're Gonna Lose Your Gal
16. After I Say I'm Sorry
17. Moon Ray
18. Sugar Blues
19. The Starlit Hour
20. What's The Matter With Me?
21. Baby, Won't You Please Come Home?

Total time: 01:03:00

CD 2 Tracklist:
01. If It Weren't For You
02. Imagination
03. Deedle-De-Dum
04. Shake Down The Stars
05. Gulf Coast Blues
06. Five O'Clock Whistle
07. Louisville, K-Y
08. Taking A Chance On Love
09. Cabin In The Sky
10. I'm The Lonesomest Girl In Town
11. Three Little Words
12. The One I Love Belongs To Somebody Else
13. The Muffin Man
14. Keep Cool, Fool
15. No Nothing
16. My Man (Mon Homme)
17. I Can't Believe That You're In Love With Me
18. I Must Have That Man
19. When My Sugar Walks Down The Street
20. I Got It Bad (And That Ain't Good)
21. Can't Help Lovin' Dat Man

Total time: 01:00:23

EAC extraction logfile from 2. July 2007, 9:55 for CD
Ella Fitzgerald / The Early Years - Part 2 (CD 1)

Used drive : LITE-ON CD-ROM LTN-527T Adapter: 1 ID: 1
Read mode : Secure with NO C2, accurate stream, disable cache
Read offset correction : 12
Overread into Lead-In and Lead-Out : Yes

Used output format : C:\Program Files\Monkey's Audio\MAC.exe (Monkey's Audio Lossless Encoder)
High Lossless Compression

Other options :
Fill up missing offset samples with silence : Yes
Delete leading and trailing silent blocks : No
Installed external ASPI interface


Range status and errors
Selected range
Filename F:\Win-Rar\Ella Fitzgerald - The Early Years Part 2 (1939-41 Decca)[APE Full Scans]\CD 1\Ella Fitzgerald - The Early Years - Part 2 (CD 1).wav.wav

Peak level 100.0 %
Range quality 100.0 %
CRC 74051C85
Copy OK

No errors occured

End of status report

[CUETools log; Date: 10.02.2019 21:02:39; Version: 2.1.4]
[CTDB TOCID: LErd2sZWdji4ufafzikY3DGxX0c-] found.
Track | CTDB Status
1 | (3/3) Accurately ripped
2 | (3/3) Accurately ripped
3 | (3/3) Accurately ripped
4 | (3/3) Accurately ripped
5 | (3/3) Accurately ripped
6 | (3/3) Accurately ripped
7 | (3/3) Accurately ripped
8 | (3/3) Accurately ripped
9 | (3/3) Accurately ripped
10 | (3/3) Accurately ripped
11 | (3/3) Accurately ripped
12 | (3/3) Accurately ripped
13 | (3/3) Accurately ripped
14 | (3/3) Accurately ripped
15 | (3/3) Accurately ripped
16 | (3/3) Accurately ripped
17 | (3/3) Accurately ripped
18 | (3/3) Accurately ripped
19 | (3/3) Accurately ripped
20 | (3/3) Accurately ripped
21 | (3/3) Accurately ripped
[AccurateRip ID: 00304f18-02e2bacb-100ec415] found.
Track [ CRC | V2 ] Status
01 [2b8b9939|088a53cc] (0+0/0) No match
02 [6f674433|ee296cbe] (0+0/0) No match
03 [63458d3e|072249c8] (0+0/0) No match
04 [a1758832|e53e63cd] (0+0/0) No match
05 [1fcf75a0|cc72f93b] (0+0/0) No match
06 [f2e9eec2|f9cdd466] (0+0/0) No match
07 [527cac03|457461f4] (0+0/0) No match
08 [d7cbb1f5|c41c23a4] (0+0/0) No match
09 [928e2177|1f25a568] (0+0/0) No match
10 [b3bf0459|94cc314c] (0+0/0) No match
11 [35cad762|2551752b] (0+0/0) No match
12 [f6b0aed7|a5d2dc2d] (0+0/0) No match
13 [6804ec4e|862c9e62] (0+0/0) No match
14 [f75e6666|66ad8200] (0+0/0) No match
15 [07f5b192|47f7b4ee] (0+1/1) Accurately ripped
16 [b333a6fd|c531504a] (0+1/1) Accurately ripped
17 [8cc6ad7f|d57038a6] (0+1/1) Accurately ripped
18 [5720e61c|67e43a4a] (0+1/1) Accurately ripped
19 [2df13fd1|302767d2] (0+1/1) Accurately ripped
20 [9f359b9c|0fe949ca] (0+1/1) Accurately ripped
21 [83ea5d5b|6c8f1b12] (0+1/1) Accurately ripped

Track Peak [ CRC32 ] [W/O NULL] [ LOG ]
– 100,0 [74051C85] [822199D6] CRC32
01 97,7 [E614BC07] [324516D2]
02 99,8 [2B5EB8E0] [0D82875C]
03 100,0 [E5C1967E] [C03E185C]
04 91,5 [77A75942] [64AF55F8]
05 95,2 [0E1D4143] [BDC9A8CE]
06 97,3 [65309C71] [C92DBEEE]
07 100,0 [34C16267] [F3D1F181]
08 96,6 [FE4AE1FA] [53D0B843]
09 100,0 [D6BF5AF9] [2573368B]
10 97,8 [B4C345E4] [09EAC613]
11 100,0 [F7486A78] [963B8253]
12 100,0 [9387D9EB] [AF243A8F]
13 100,0 [4BA4F275] [7537A677]
14 100,0 [6DCB2B15] [762969B7]
15 97,6 [3C742680] [A91D491D]
16 85,1 [4AFDE315] [7A94314C]
17 99,5 [C2E857B5] [84215A6E]
18 97,5 [517C6CD1] [70D26DEA]
19 96,9 [A1C0A5A6] [A6983B54]
20 98,9 [489EFFC3] [C47E2455]
21 92,9 [18BC58E7] [65F58026]

EAC extraction logfile from 2. July 2007, 10:23 for CD
Ella Fitzgerald / Ella Fitzgerald: The Early Years - Part 2 (Disc 2)

Used drive : LITE-ON CD-ROM LTN-527T Adapter: 1 ID: 1
Read mode : Secure with NO C2, accurate stream, disable cache
Read offset correction : 12
Overread into Lead-In and Lead-Out : Yes

Used output format : C:\Program Files\Monkey's Audio\MAC.exe (Monkey's Audio Lossless Encoder)
High Lossless Compression

Other options :
Fill up missing offset samples with silence : Yes
Delete leading and trailing silent blocks : No
Installed external ASPI interface


Range status and errors
Selected range
Filename F:\Win-Rar\Ella Fitzgerald - The Early Years Part 2 (1939-41 Decca)[APE Full Scans]\CD 2\Ella Fitzgerald - Ella Fitzgerald The Early Years - Part 2 (Disc 2).wav.wav

Peak level 100.0 %
Range quality 100.0 %
CRC 2211F647
Copy OK

No errors occured

End of status report

[CUETools log; Date: 10.02.2019 21:03:22; Version: 2.1.4]
[CTDB TOCID: 087rrn28d1vcY4KUgI0WvvckLYQ-] found.
Track | CTDB Status
1 | (3/3) Accurately ripped
2 | (3/3) Accurately ripped
3 | (3/3) Accurately ripped
4 | (3/3) Accurately ripped
5 | (3/3) Accurately ripped
6 | (3/3) Accurately ripped
7 | (3/3) Accurately ripped
8 | (3/3) Accurately ripped
9 | (3/3) Accurately ripped
10 | (3/3) Accurately ripped
11 | (3/3) Accurately ripped
12 | (3/3) Accurately ripped
13 | (3/3) Accurately ripped
14 | (3/3) Accurately ripped
15 | (3/3) Accurately ripped
16 | (3/3) Accurately ripped
17 | (3/3) Accurately ripped
18 | (3/3) Accurately ripped
19 | (3/3) Accurately ripped
20 | (3/3) Accurately ripped
21 | (3/3) Accurately ripped
[AccurateRip ID: 002dc03e-02bcb6d6-350e2615] found.
Track [ CRC | V2 ] Status
01 [f0be624b|c1daa758] (0+1/1) Accurately ripped
02 [3ef08fd8|e145ecb3] (0+1/1) Accurately ripped
03 [5a7c2f8c|38ddc972] (0+1/1) Accurately ripped
04 [23ba7e0e|c2936143] (0+1/1) Accurately ripped
05 [99c678f4|7e9313db] (0+1/1) Accurately ripped
06 [cf57a07a|22c9803c] (0+1/1) Accurately ripped
07 [8354aa0e|cc04e00a] (0+1/1) Accurately ripped
08 [0331e869|534a9521] (0+1/1) Accurately ripped
09 [d47ac75b|d97e4678] (0+1/1) Accurately ripped
10 [a6822989|13d6c3e2] (0+1/1) Accurately ripped
11 [c9316f18|040047b7] (0+1/1) Accurately ripped
12 [486132cd|65e10b3b] (0+1/1) Accurately ripped
13 [1ac4f084|5e54b094] (0+1/1) Accurately ripped
14 [349b75b2|9559d3b6] (0+1/1) Accurately ripped
15 [c049cdb3|b4dae5e2] (0+1/1) Accurately ripped
16 [9bfed746|97fa8b0c] (0+1/1) Accurately ripped
17 [6359351a|f84a4104] (0+1/1) Accurately ripped
18 [5d10631f|332d8b17] (0+1/1) Accurately ripped
19 [50a6d016|1d3cfe7e] (0+1/1) Accurately ripped
20 [c306c17b|a61b3771] (0+1/1) Accurately ripped
21 [a9e0aa2a|e26a134c] (0+1/1) Accurately ripped

Track Peak [ CRC32 ] [W/O NULL] [ LOG ]
– 100,0 [2211F647] [F1537DAB] CRC32
01 100,0 [5810DD4B] [8C4BDC21]
02 94,4 [316B7170] [238CCEA8]
03 100,0 [B8F78450] [35F44611]
04 95,2 [336EA729] [238AA704]
05 100,0 [5F325F9A] [07D0D944]
06 100,0 [3EA24A4C] [9E44213B]
07 100,0 [60E2D766] [FFCE0073]
08 96,9 [994188BB] [7E8489AC]
09 92,2 [28966487] [6AB88CFB]
10 100,0 [69B2AC24] [76A4986B]
11 100,0 [805750EC] [5EFA87D6]
12 89,0 [54CADB5F] [F0E2039E]
13 100,0 [22BF3B69] [2282AFF3]
14 98,3 [89F8F4C0] [67AA788F]
15 100,0 [891876A4] [98930580]
16 95,5 [35A471E3] [735B2B77]
17 96,3 [AD5EBEED] [E2A8F700]
18 94,4 [A7CB427E] [1217CBF3]
19 100,0 [DC3A3BC7] [58D920E7]
20 99,5 [C5638FEB] [8B803620]
21 99,7 [B412CD17] [B5AEF849]

Thanks to Mazeppa

See also:

Ella Fitzgerald & Louis Armstrong - Ella and Louis (1956) [Japanese Edition 2007]
Ella Fitzgerald & Louis Armstrong - Porgy & Bess (1958) [Japanese Edition 2011]
Ella Fitzgerald - Get Happy! (1959) [Reissue 1998]
Ella Fitzgerald - The Complete Ella Fitzgerald Song Books (1956-1964) [16CD Box Set] (1993)
Ella Fitzgerald - Ella Wishes You A Swinging Christmas (1960) [Reissue 2002]
Ella Fitzgerald - Clap Hands, Here Comes Charlie! (1961)
Ella Fitzgerald - Ella In Hollywood (1961) [Reissue 2009]
Ella Fitzgerald - Ella Swings Gently With Nelson (1962) [Reissue 1993]
Ella Fitzgerald - Ella Sings Broadway (1963) [Reissue 2001]
Ella Fitzgerald & Count Basie - On The Sunny Side Of The Street (1963)
Ella Fitzgerald - These Are The Blues (1963)
Ella Fitzgerald - Ella In Hamburg (1965) [Reissue 2007]
Ella Fitzgerald - Ella Fitzgerald's Christmas (1967) [Reissue 1990]
Ella Fitzgerald - Live In San Francisco (1969) [Reissue 2006]
Ella Fitzgerald & Joe Pass - Take Love Easy (1974) [Reissue 1997]
Ella Fitzgerald - Ella in London (1974)
Ella Fitzgerald - At The Montreux Jazz Festival 1975 (1975) [Reissue 1993]
Ella Fitzgerald & Oscar Peterson - Ella And Oscar (1976) [Reissue 2001]
Ella Fitzgerald - Lady Time (1978) [Reissue 1995]
Ella Fitzgerald & Cole Porter - Dream Dancing (1978) [Reissue 2002]
Ella Fitzgerald - Fine and Mellow (1979)
Ella Fitzgerald & Count Basie - A Perfect Match (1979)
Ella Fitzgerald & Count Basie - A Classy Pair (1979)
Ella Fitzgerald - The Best Is Yet to Come (1982) [Reissue 1996]
Ella Fitzgerald and Andre Previn - Nice Work If You Can Get It (1983)
Ella Fitzgerald & Joe Pass - Speak Love (1983)
Ella Fitzgerald & Duke Ellington - The Stockholm Concert, 1966 (1984)
Ella Fitzgerald - All That Jazz (1990)
Ella Fitzgerald - The Early Years - Part 1 [Recorded 1935-1938] (1992)
Duke Ellington & Ella Fitzgerald - Duke & Ella In Concerto [Recorded 1966] (1993)
Ella Fitzgerald & Louis Armstrong - Verve Jazz Masters 24 (1994)
Ella Fitzgerald - The Concert Years [4CD Box Set] (1994)
Duke Ellington - Live in Europe (Guest Star Ella Fitzgerald) [Recorded 1967] (1994)
Ella Fitzgerald - Bluella: Ella Fitzgerald Sings the Blues [Recorded 1953-1979] (1996)
Ella Fitzgerald - In Budapest [Recorded 1970] (1999)
Ella Fitzgerald - Classic Jazz Archive [Recorded 1935-1946] (2004)
Ella Fitzgerald - Complete 1940 NBC Broadcasts (2006)
Ella Fitzgerald - Live At Mister Kelly's [Recorded 1958] (2007)
Ella Fitzgerald & Louis Armstrong - Singing And Swinging Together [Recorded 1950-1957] (2011)