Tags
Language
Tags
April 2024
Su Mo Tu We Th Fr Sa
31 1 2 3 4 5 6
7 8 9 10 11 12 13
14 15 16 17 18 19 20
21 22 23 24 25 26 27
28 29 30 1 2 3 4

Ellen Foley - Night Out (1979) Reissue 2005

Posted By: Designol
Ellen Foley - Night Out (1979) Reissue 2005

Ellen Foley - Night Out (1979) Reissue 2005
EAC | FLAC | Tracks (Cue&Log) ~ 270 Mb | Mp3 (CBR320) ~ 91 Mb | Scans included
Classic Rock | Label: Wounded Bird Records | # WOU 6052 | Time: 00:38:17

Night Out is the 1979 debut studio album by Ellen Foley, a long-time backup vocalist for Meat Loaf. Seven of the nine tracks were cover versions of Foley's favorite songs, while two were co-written by Foley, one of which was "We Belong to the Night", which hit #1 in the Netherlands and #31 in Australia around Christmas of 1979. The musicians were mostly from Ian Hunter's touring band for his 1979 album You're Never Alone with a Schizophrenic, with the addition of Australian musician Kerryn Tolhurst on slide guitar. Hunter and ex-Spiders From Mars guitarist Mick Ronson produced the album. Ronson suggested the two Philip Rambow songs and the piano backing for the final track "Don't Let Go", written by Hunter.

The grand opener "We Belong to the Night" is breathtaking and bombastic bliss; a creamy confection of debonair dreams that could only come from the late '70s and the glitter-gutter combo of Mick Ronson and Ian Hunter. The princely poppers provide the perfect atmosphere for Foley's powerful theatrics on her inaugural flight. The second single, "What's a Matter Baby," soars just as high in the stratosphere: a little bit '50s, but a whole lot cosmic. It's a crime music which hides in the recesses of the past, because this gem is priceless, if only for the first two tracks. Ronson's axe is exemplary throughout: shooting over Mars and then swooping back through nocturnal cityscapes. He twists "Heartful of Soul" into "Young Lust" and makes a break for it in "Hide Away." Obviously haunted by midnight Spectors, kindred spirit Hunter supplies the perfect keyboard counterpart: mission control for Ronson's rockets. The swirling storm whipping through Gram Parker's "Thunder and Rain" builds to an almost unbearable compression of intensity. In the eye of this celestial storm, Foley scats, scolds, swoons, croons, pouts, pleads, and purrs in a rich tone that few femme fatales possess, scaling a towering wall of sonic seduction. The sublime proceedings finally slow down to a crawl for fallout "Don't Let Go," but it's just the mourning after an unforgettable Night Out.

Review by Doug Stone, Allmusic.com

Ellen Foley - Night Out (1979) Reissue 2005



Tracklist:

1. We Belong To The Night (5:22)
2. What's A Matter Baby (3:40)
3. Stupid Girl (4:10)
4. Night Out (5:19)
5. Thunder And Rain (3:05)
6. Sad Song (3:31)
7. Young Lust (5:27)
8. Hideaway (3:50)
9. Don't Let Go (3:58)


EAC extraction logfile from 22. February 2007, 13:07 for CD
Ellen Foley / Night Out

Used drive : PIONEER DVD-RW DVR-107D Adapter: 2 ID: 0
Read mode : Secure with NO C2, accurate stream, disable cache
Read offset correction : 48
Overread into Lead-In and Lead-Out : No

Used output format : C:\Program Files\FLAC\flac.exe (User Defined Encoder)
320 kBit/s
Additional command line options : -T "artist=%a" -T "title=%t" -T "album=%g" -T "date=%y" -T "tracknumber=%n" -T "genre=%m" %s -8 –verify

Other options :
Fill up missing offset samples with silence : Yes
Delete leading and trailing silent blocks : No
Installed external ASPI interface


Track 1
Filename E:\My music\Ellen Foley - Night Out\Ellen Foley - 01 We Belong To The Night.wav

Pre-gap length 0:00:02.00

Peak level 94.4 %
Track quality 100.0 %
Test CRC 9C3D0A24
Copy CRC 9C3D0A24
Copy OK

Track 2
Filename E:\My music\Ellen Foley - Night Out\Ellen Foley - 02 Whats The Matter Baby.wav

Peak level 94.4 %
Track quality 100.0 %
Test CRC B2A99F43
Copy CRC B2A99F43
Copy OK

Track 3
Filename E:\My music\Ellen Foley - Night Out\Ellen Foley - 03 Stupid Girl.wav

Peak level 94.4 %
Track quality 100.0 %
Test CRC 8A498626
Copy CRC 8A498626
Copy OK

Track 4
Filename E:\My music\Ellen Foley - Night Out\Ellen Foley - 04 Night Out.wav

Peak level 94.4 %
Track quality 100.0 %
Test CRC 754DFD2C
Copy CRC 754DFD2C
Copy OK

Track 5
Filename E:\My music\Ellen Foley - Night Out\Ellen Foley - 05 Thunder And Rain.wav

Peak level 94.4 %
Track quality 100.0 %
Test CRC 3E64DECD
Copy CRC 3E64DECD
Copy OK

Track 6
Filename E:\My music\Ellen Foley - Night Out\Ellen Foley - 06 Sad Song.wav

Peak level 94.4 %
Track quality 100.0 %
Test CRC 5E0A12C4
Copy CRC 5E0A12C4
Copy OK

Track 7
Filename E:\My music\Ellen Foley - Night Out\Ellen Foley - 07 Young Lust.wav

Peak level 94.4 %
Track quality 100.0 %
Test CRC 691C92A8
Copy CRC 691C92A8
Copy OK

Track 8
Filename E:\My music\Ellen Foley - Night Out\Ellen Foley - 08 Hideaway.wav

Peak level 94.4 %
Track quality 100.0 %
Test CRC 35634E38
Copy CRC 35634E38
Copy OK

Track 9
Filename E:\My music\Ellen Foley - Night Out\Ellen Foley - 09 Don't Let Go.wav

Peak level 49.0 %
Track quality 99.9 %
Test CRC BC1527A1
Copy CRC BC1527A1
Copy OK

No errors occured


End of status report

[CUETools log; Date: 16.06.2021 18:24:04; Version: 2.1.7]
[CTDB TOCID: SJK1c71ubgyL0BDDk1fXmSmmaw0-] found.
Track | CTDB Status
1 | (29/29) Accurately ripped
2 | (29/29) Accurately ripped
3 | (29/29) Accurately ripped
4 | (29/29) Accurately ripped
5 | (29/29) Accurately ripped
6 | (29/29) Accurately ripped
7 | (29/29) Accurately ripped
8 | (29/29) Accurately ripped
9 | (29/29) Accurately ripped
[AccurateRip ID: 000d70ab-0061b9f6-5e08f809] found.
Track [ CRC | V2 ] Status
01 [82458d47|71117852] (13+13/26) Accurately ripped
02 [2990bbd3|af9f1328] (13+13/26) Accurately ripped
03 [5a9885bf|ff63fe18] (13+13/26) Accurately ripped
04 [2f37df65|7e988e35] (13+12/25) Accurately ripped
05 [a980b5a3|e8bd6079] (13+12/25) Accurately ripped
06 [0e28a3a6|e13d98c6] (13+12/25) Accurately ripped
07 [c7f201dc|79028db6] (13+12/25) Accurately ripped
08 [212664a6|14f6ce88] (14+12/26) Accurately ripped
09 [cf1fdb80|4ded0d9f] (14+12/26) Accurately ripped
Offsetted by 6:
01 [2dcb27d9] (00/26) No match (V2 was not tested)
02 [706746d9] (00/26) No match (V2 was not tested)
03 [f56b0af1] (00/26) No match (V2 was not tested)
04 [447dce27] (00/25) No match (V2 was not tested)
05 [08a06fd1] (00/25) No match (V2 was not tested)
06 [2f47564a] (00/25) No match (V2 was not tested)
07 [3bfbbfce] (00/25) No match (V2 was not tested)
08 [2a4b3eaa] (00/26) No match (V2 was not tested)
09 [da37d0e0] (00/26) No match (V2 was not tested)

Track Peak [ CRC32 ] [W/O NULL] [ LOG ]
– 94,4 [F2725BB5] [EA33879D]
01 94,4 [9C3D0A24] [2943CED3] CRC32
02 94,4 [B2A99F43] [5AE42023] CRC32
03 94,4 [8A498626] [5DA9644C] CRC32
04 94,4 [754DFD2C] [E4AEEC92] CRC32
05 94,4 [3E64DECD] [F49478A9] CRC32
06 94,4 [5E0A12C4] [EEDE42F8] CRC32
07 94,4 [691C92A8] [EA53A506] CRC32
08 94,4 [35634E38] [F87DF81F] CRC32
09 49,0 [BC1527A1] [78ED7B1B] CRC32

foobar2000 1.6.3 / Dynamic Range Meter 1.1.1
log date: 2021-06-16 18:25:57

––––––––––––––––––––––––––––––––––––––––
Analyzed: Ellen Foley / Night Out
––––––––––––––––––––––––––––––––––––––––

DR Peak RMS Duration Track
––––––––––––––––––––––––––––––––––––––––
DR11 -0.49 dB -13.04 dB 5:21 01-We Belong To The Night
DR12 -0.49 dB -14.06 dB 3:40 02-What's A Matter Baby
DR12 -0.49 dB -13.03 dB 4:09 03-Stupid Girl
DR13 -0.49 dB -16.20 dB 5:18 04-Night Out
DR12 -0.49 dB -13.53 dB 3:04 05-Thunder And Rain
DR13 -0.49 dB -15.42 dB 3:30 06-Sad Song
DR13 -0.49 dB -13.71 dB 5:27 07-Young Lust
DR12 -0.49 dB -13.65 dB 3:49 08-Hideaway
DR13 -6.19 dB -23.82 dB 3:57 09-Don't Let Go
––––––––––––––––––––––––––––––––––––––––

Number of tracks: 9
Official DR value: DR12

Samplerate: 44100 Hz
Channels: 2
Bits per sample: 16
Bitrate: 689 kbps
Codec: FLAC
================================================================================

Ellen Foley - Night Out (1979) Reissue 2005

Ellen Foley - Night Out (1979) Reissue 2005

All thanks to original releaser

More interesting music in My Blog