Tags
Language
Tags
April 2024
Su Mo Tu We Th Fr Sa
31 1 2 3 4 5 6
7 8 9 10 11 12 13
14 15 16 17 18 19 20
21 22 23 24 25 26 27
28 29 30 1 2 3 4

Elvin Jones - Jazz Machine (1997) {Koch}

Posted By: tiburon
Elvin Jones - Jazz Machine (1997) {Koch}

Elvin Jones - Jazz Machine (1997) {Koch}
EAC 1.3 | FLAC tracks level 8 | Cue+Log+M3U | Full Scans 300dpi | 451MB + 5% Recovery
MP3 CBR 320 Kbps | 169MB + 5% Recovery
Genre: Jazz, Bop
Elvin Jones - Jazz Machine (1997) {Koch}

Elvin Jones may have established himself as one of the greatest drummers of all time, but equally important to him was his nurturing of young musicians. His Jazz Machine opened the door to several upcoming musicians, including Delfeayo Marsalis, Antoine Roney and Ravi Coltrane. He characteristically took delight in their playing, thus forging an emphatic bond. His attitude also served to enrich the music of the band.
Track List
From "Going Home" (Enja 7095)
1. April 8th - 7:03 (Elvin Jones)
2. East Of The Sun - 4:06 (Brooks Bowman)
From "It Don't Mean A Thing" (Enja 8066)
3. Zenzo's Spirit - 6:57 (Keiko Jones)
4. A Change Is Gonna Come - 5:25 (Sam Cooke)
5. It Don't Mean A Thing If It Ain't Got That Swing - 5:38 (Duke Ellington)
From "Youngblood" (Enja 7051)
6. Angel Eyes - 8:50 (Matt Dennis)
7. Have You Seen Elveen - 7:54 (Nicholas Payton)
8. My Romance - 6:25 (Richard Rodgers-Lorenz Hart)
From "It Don't Mean A Thing" (Enja 8066)
9. A Flower Is A Lovesome Thing/Ask Me Now - 9:13 (Billy Strayhorn/Thelonious Monk)
From "In Europe" (Enja 7009)
10. Island Birdie - 13:02 (McCoy Tyner)

musicians
1,2 - Nicholas Payton, trumpet; Ravi Coltrane, soprano and tenor saxophones; Javon Jackson, tenor saxophone; Kent Jordan, flute, piccolo; Willie Pickens, piano; Brad Jones, bass.
3-5 - Nicholas Payton, trumpet; Sonny Fortune, tenor saxophone, flute; Delfeayo Marsalis, trombone; Willie Pickens, piano; Cecil McBee, bass.
6 - Joshua Redman, tenor saxophone; George Mraz, bass.
7 - Same as 6 but add Nicholas Payton, trumpet; Javon Jackson, tenor saxophone
8 - Duet between Elvin Jones and George Mraz, bass.
9 - Personnel same as tracks 3-5
10 - Sonny Fortune, tenor saxophone, flute; Ravi Coltrane, tenor and soprano saxophones; Willie Pickens, piano; Chip Jackson, bass.


Exact Audio Copy V1.3 from 2. September 2016

EAC extraction logfile from 21. August 2019, 8:38

Elvin Jones / Jazz Machine

Used drive : HL-DT-STDVDRAM GSA-T50N Adapter: 1 ID: 0

Read mode : Secure
Utilize accurate stream : Yes
Defeat audio cache : Yes
Make use of C2 pointers : No

Read offset correction : 667
Overread into Lead-In and Lead-Out : No
Fill up missing offset samples with silence : Yes
Delete leading and trailing silent blocks : No
Null samples used in CRC calculations : Yes
Used interface : Native Win32 interface for Win NT & 2000
Gap handling : Appended to previous track

Used output format : User Defined Encoder
Selected bitrate : 1024 kBit/s
Quality : High
Add ID3 tag : No
Command line compressor : C:\Program Files\Exact Audio Copy\Flac\flac.exe
Additional command line options : -V -8 -T "Genre=%genre%" -T "Artist=%artist%" -T "Title=%title%" -T "Album=%albumtitle%" -T "Date=%year%" -T "Tracknumber=%tracknr%" %source% -o %dest%


TOC of the extracted CD

Track | Start | Length | Start sector | End sector
––––––––––––––––––––––––––––-
1 | 0:00.00 | 6:49.65 | 0 | 30739
2 | 6:49.65 | 4:01.35 | 30740 | 48849
3 | 10:51.25 | 6:56.00 | 48850 | 80049
4 | 17:47.25 | 5:25.35 | 80050 | 104459
5 | 23:12.60 | 5:42.27 | 104460 | 130136
6 | 28:55.12 | 8:46.25 | 130137 | 169611
7 | 37:41.37 | 7:42.20 | 169612 | 204281
8 | 45:23.57 | 6:13.03 | 204282 | 232259
9 | 51:36.60 | 9:08.15 | 232260 | 273374
10 | 60:45.00 | 13:09.40 | 273375 | 332589


Track 1

Filename C:\music\MG rips\Elvin Jones - Jazz Machine - 1997 (Koch, Jazz Fest) [FLAC]\01 - April 8th.wav

Pre-gap length 0:00:02.00

Peak level 96.0 %
Extraction speed 2.6 X
Track quality 100.0 %
Test CRC 0BD94125
Copy CRC 0BD94125
Accurately ripped (confidence 1) [EFEA9EE2] (AR v2)
Copy OK

Track 2

Filename C:\music\MG rips\Elvin Jones - Jazz Machine - 1997 (Koch, Jazz Fest) [FLAC]\02 - East Of The Sun.wav

Peak level 96.0 %
Extraction speed 2.8 X
Track quality 100.0 %
Test CRC BABA2CC2
Copy CRC BABA2CC2
Accurately ripped (confidence 1) [C59A3FF5] (AR v2)
Copy OK

Track 3

Filename C:\music\MG rips\Elvin Jones - Jazz Machine - 1997 (Koch, Jazz Fest) [FLAC]\03 - Zenzo's Spirit.wav

Peak level 88.1 %
Extraction speed 3.0 X
Track quality 99.9 %
Test CRC 92F8ACAC
Copy CRC 92F8ACAC
Accurately ripped (confidence 1) [E01C5D72] (AR v2)
Copy OK

Track 4

Filename C:\music\MG rips\Elvin Jones - Jazz Machine - 1997 (Koch, Jazz Fest) [FLAC]\04 - A Change Is Gonna Come.wav

Pre-gap length 0:00:01.28

Peak level 100.0 %
Extraction speed 3.5 X
Track quality 100.0 %
Test CRC A6CA9884
Copy CRC A6CA9884
Accurately ripped (confidence 1) [10548AE5] (AR v2)
Copy OK

Track 5

Filename C:\music\MG rips\Elvin Jones - Jazz Machine - 1997 (Koch, Jazz Fest) [FLAC]\05 - It Don't Mean A Thing If It Ain't Got That Swing.wav

Peak level 83.4 %
Extraction speed 3.7 X
Track quality 100.0 %
Test CRC 3C97ACD5
Copy CRC 3C97ACD5
Accurately ripped (confidence 1) [B7EA844C] (AR v2)
Copy OK

Track 6

Filename C:\music\MG rips\Elvin Jones - Jazz Machine - 1997 (Koch, Jazz Fest) [FLAC]\06 - Angel Eyes.wav

Pre-gap length 0:00:01.50

Peak level 95.3 %
Extraction speed 4.1 X
Track quality 100.0 %
Test CRC 999A9DBF
Copy CRC 999A9DBF
Accurately ripped (confidence 1) [28842AB6] (AR v2)
Copy OK

Track 7

Filename C:\music\MG rips\Elvin Jones - Jazz Machine - 1997 (Koch, Jazz Fest) [FLAC]\07 - Have You Seen Elveen.wav

Pre-gap length 0:00:02.05

Peak level 95.3 %
Extraction speed 4.4 X
Track quality 100.0 %
Test CRC 9386CAA4
Copy CRC 9386CAA4
Accurately ripped (confidence 1) [4A86B9C9] (AR v2)
Copy OK

Track 8

Filename C:\music\MG rips\Elvin Jones - Jazz Machine - 1997 (Koch, Jazz Fest) [FLAC]\08 - My Romance.wav

Peak level 95.3 %
Extraction speed 4.5 X
Track quality 100.0 %
Test CRC 577A56D6
Copy CRC 577A56D6
Accurately ripped (confidence 1) [71C6C728] (AR v2)
Copy OK

Track 9

Filename C:\music\MG rips\Elvin Jones - Jazz Machine - 1997 (Koch, Jazz Fest) [FLAC]\09 - A Flower Is A Lovesome Thing - Ask Me Now.wav

Pre-gap length 0:00:01.43

Peak level 99.6 %
Extraction speed 4.9 X
Track quality 100.0 %
Test CRC F3AA22D8
Copy CRC F3AA22D8
Accurately ripped (confidence 1) [33A8C632] (AR v2)
Copy OK

Track 10

Filename C:\music\MG rips\Elvin Jones - Jazz Machine - 1997 (Koch, Jazz Fest) [FLAC]\10 - Island Birdie.wav

Peak level 97.7 %
Extraction speed 5.1 X
Track quality 99.9 %
Test CRC 76C46E78
Copy CRC 76C46E78
Accurately ripped (confidence 1) [65639629] (AR v2)
Copy OK


All tracks accurately ripped

No errors occurred

End of status report

==== Log checksum 01BE8B8EF073C07D904691A8F2F9880713BAA89102025D0C725B5E69FDD229C0 ====

Elvin Jones - Jazz Machine (1997) {Koch}
Elvin Jones - Jazz Machine (1997) {Koch}


Thanks to the original ripper