Subcategories

Elvis Presley - Heartbreak Hotel [CD-Single] (1996)

Posted By: BlondStyle
Elvis Presley - Heartbreak Hotel [CD-Single] (1996)

Elvis Presley - Heartbreak Hotel [CD-Single] (1996)
Rock, Rock & Roll | EAC Rip | FLAC, Img+CUE+LOG+Scans (JPEG) | 09:29 Min | 48,23 Mb
Label: RCA Records/BMG (USA) | Cat.# 07863 64475-2 | Released: 1996 (1956-01-27)

"Heartbreak Hotel" is a song recorded by American singer Elvis Presley. It was released as a single on January 27, 1956, Presley's first on his new record label RCA Victor. It was written by Tommy Durden and Mae Boren Axton. A newspaper article about the suicide of a lonely man who jumped from a hotel window inspired the lyrics. Axton presented the song to Presley in November 1955 at a country music convention in Nashville. Presley agreed to record it, and did so on January 10, 1956, in a session with his band, The Blue Moon Boys, the guitarist Chet Atkins, and the pianist Floyd Cramer. "Heartbreak Hotel" comprises an eight-bar blues progression, with heavy reverberation throughout the track, to imitate the character of Presley's Sun recordings. The single topped Billboard's Top 100 chart for seven weeks, Cashbox's pop singles chart for six weeks, was #1 on the Country and Western chart for seventeen weeks and reached #3 on the R&B chart, becoming Presley's first million-seller, and one of the best-selling singles of 1956. "Heartbreak Hotel" achieved unheard feats as it reached the Top 5 of Country and Western, pop, and Rhythm 'n' Blues charts simultaneously.
~Wikipedia

Elvis Presley - Heartbreak Hotel [CD-Single] (1996)

Elvis Presley - Heartbreak Hotel [CD-Single] (1996)


Release of this Single: 1956, January, 27 [LP (7") RCA Victor, Cat.# 47-6420, USA]
Release of this CD: 1996 [CD RCA Records/BMG (USA), Cat.# 07863 64475-2, UPC: 078636447520]
© BMG Entertainment
Manufactured and Distributed by BMG Distribution
Printed/Made in U.S.A.


Notes: Recorded on January 10-11 1956 at the RCA Recording Studio on McGavock, Nashville, Tennessee.
Taken From "Elvis 56". 40th Anniversary Commerative Edition.

Tracklist:

01. Heartbreak Hotel (02:11)
02. I Was The One (02:35)
03. Heartbreak Hotel (Alternate Take 5-Intro-Previously Unreleased) (02:15)
04. I Was The One (Alternate Take 2-Previously Unreleased) (02:28)

Exact Audio Copy V0.99 prebeta 5 from 4. May 2009

EAC extraction logfile from 11. April 2010, 11:43

Elvis Presley / Heartbreak Hotel/I Was The One

Used drive : PIONEER DVD-RW DVR-111D Adapter: 1 ID: 1

Read mode : Secure
Utilize accurate stream : Yes
Defeat audio cache : Yes
Make use of C2 pointers : No

Read offset correction : 48
Overread into Lead-In and Lead-Out : No
Fill up missing offset samples with silence : Yes
Delete leading and trailing silent blocks : No
Null samples used in CRC calculations : Yes
Used interface : Native Win32 interface for Win NT & 2000

Used output format : User Defined Encoder
Selected bitrate : 1024 kBit/s
Quality : High
Add ID3 tag : No
Command line compressor : C:\Program Files\Exact Audio Copy\Flac\flac.exe
Additional command line options : -8 -T "artist=%a" -T "title=%t" -T "album=%g" -T "date=%y" -T "tracknumber=%n" -T "genre=%m" %s


TOC of the extracted CD

Track | Start | Length | Start sector | End sector
––––––––––––––––––––––––––––-
1 | 0:00.00 | 2:11.00 | 0 | 9824
2 | 2:11.00 | 2:34.62 | 9825 | 21436
3 | 4:45.62 | 2:14.55 | 21437 | 31541
4 | 7:00.42 | 2:28.00 | 31542 | 42641


Range status and errors

Selected range

Filename D:\Elvis Presley - Heartbreak Hotel CD Single.wav

Peak level 88.7 %
Range quality 100.0 %
Copy CRC 380D8A4E
Copy OK

No errors occurred


AccurateRip summary

Track 1 not present in database
Track 2 not present in database
Track 3 not present in database
Track 4 not present in database

None of the tracks are present in the AccurateRip database

End of status report

––––––––––––––––––––––––––––––––––––––––
Analyzed: Elvis Presley / Heartbreak Hotel/I Was The One
––––––––––––––––––––––––––––––––––––––––

DR Peak RMS Duration Track
––––––––––––––––––––––––––––––––––––––––
DR13 -1.04 dB -15.98 dB 2:11 01-Heartbreak Hotel (take 7)
DR14 -1.20 dB -17.81 dB 2:35 02-I Was The One (take 7)
DR13 -1.85 dB -17.24 dB 2:15 03-Heartbreak Hotel (take 5)
DR13 -1.80 dB -17.04 dB 2:28 04-I Was The One (take 2)
––––––––––––––––––––––––––––––––––––––––

Number of tracks: 4
Official DR value: DR13

Samplerate: 44100 Hz
Channels: 2
Bits per sample: 16
Bitrate: 571 kbps
Codec: FLAC
================================================================================

Thanks to the original releaser

See also:
Elvis Presley - The Album Collection: 60 CDs Deluxe Box Set (2016) {Discs 1-3}
Elvis Presley - The Album Collection: 60 CDs Deluxe Box Set (2016) {Discs 4-6}
Elvis Presley - The Album Collection: 60 CDs Deluxe Box Set (2016) {Discs 7-9}
Elvis Presley - The Album Collection: 60 CDs Deluxe Box Set (2016) {Discs 10-12}
Elvis Presley - The Album Collection: 60 CDs Deluxe Box Set (2016) {Discs 13-15}
Elvis Presley - The Album Collection: 60 CDs Deluxe Box Set (2016) {Discs 16-18}
Elvis Presley - The Album Collection: 60 CDs Deluxe Box Set (2016) {Discs 19-21}
Elvis Presley - The Album Collection: 60 CDs Deluxe Box Set (2016) {Discs 22-24}
Elvis Presley - The Album Collection: 60 CDs Deluxe Box Set (2016) {Discs 25-27}
Elvis Presley - The Album Collection: 60 CDs Deluxe Box Set (2016) {Discs 28-30}
Elvis Presley - The Album Collection: 60 CDs Deluxe Box Set (2016) {Discs 31-33}
Elvis Presley - The Album Collection: 60 CDs Deluxe Box Set (2016) {Discs 34-36}
Elvis Presley - The Album Collection: 60 CDs Deluxe Box Set (2016) {Discs 37-39}
Elvis Presley - The Album Collection: 60 CDs Deluxe Box Set (2016) {Discs 40-42}
Elvis Presley - The Album Collection: 60 CDs Deluxe Box Set (2016) {Discs 43-45}
Elvis Presley - The Album Collection: 60 CDs Deluxe Box Set (2016) {Discs 46-48}
Elvis Presley - The Album Collection: 60 CDs Deluxe Box Set (2016) {Discs 49-51}
Elvis Presley - The Album Collection: 60 CDs Deluxe Box Set (2016) {Discs 52-54}
Elvis Presley - The Album Collection: 60 CDs Deluxe Box Set (2016) {Discs 55-57}
Elvis Presley - The Album Collection: 60 CDs Deluxe Box Set (2016) {Discs 58-60}

And more:
Elvis Presley - That's The Way It Is (1970) [2014, 2CD Legacy Edition]
Elvis Presley - Welcome To My World (1977) [1992, Remastered Reissue]
Elvis Presley - Elvis: The Complete 1954-62 U.S.A. Singles (2015) [4CD]

Welcome To My Blog

password: BlondStyle