Subcategories

Emerson, Lake & Palmer - Tarkus (1971)

Posted By: v3122
Emerson, Lake & Palmer - Tarkus (1971)

Emerson, Lake & Palmer - Tarkus (1971)
EAC | Flac(Image) + Cue + Log & MP3 CBR 320Kbps
Manticore, CDOR 8214 | Italy | ~ 219 or 93 Mb | Scans(png) -> 151 Mb
Progressive Rock

Emerson, Lake & Palmer's 1970 eponymous LP was only a rehearsal. It hit hard because of the novelty of the act (allegedly the first supergroup in rock history), but felt more like a collection of individual efforts and ideas than a collective work. All doubts were dissipated by the release of Tarkus in 1971. Side one of the original LP is occupied by the 21-minute title epic track, beating both Genesis' "Supper's Ready" and Yes' "Close to the Edge" by a year. Unlike the latter group's cut-and-paste technique to obtain long suites, "Tarkus" is a thoroughly written, focused piece of music. It remains among the Top Ten classic tracks in progressive rock history. Because of the strength of side one, the material on the album's second half has been quickly forgotten – with one good reason: it doesn't match the strength of its counterpart – but "Bitches Crystal" and "A Time and a Place" make two good prog rock tracks, the latter being particularly rocking. "Jeremy Bender" is the first in a series of honky tonk-spiced, Far-West-related songs. This one and the rock & roll closer "Are You Ready Eddy?" are the only two tracks worth throwing away. Otherwise Tarkus makes a very solid album, especially to the ears of prog rock fans – no Greg Lake acoustic ballads, no lengthy jazz interludes. More accomplished than the trio's first album, but not quite as polished as Brain Salad Surgery, Tarkus is nevertheless a must-have.

by François Couture, allmusic
Emerson, Lake & Palmer - Tarkus (1971):

Emerson, Lake & Palmer - Tarkus (1971)

Tracklist:

01. Eruption
02. Stones of years
03. Iconoclast
04. Mass
05. Manticore
06. Battlefiled
07. Aquatarkus
08. Jeremy Bender
09. Bitches Crystal
10. The Only way (Hymn)
11. Infinite space (conclusion)
12. A time and a place
13. Are you ready Eddy?

Exact Audio Copy V1.3 from 2. September 2016

EAC extraction logfile from 7. November 2017, 11:21

Emerson, Lake & Palmer / Tarkus

Used drive : SONY BD RW BDX-S600U Adapter: 1 ID: 2

Read mode : Secure
Utilize accurate stream : Yes
Defeat audio cache : Yes
Make use of C2 pointers : No

Read offset correction : 48
Overread into Lead-In and Lead-Out : No
Fill up missing offset samples with silence : Yes
Delete leading and trailing silent blocks : No
Null samples used in CRC calculations : Yes
Used interface : Native Win32 interface for Win NT & 2000

Used output format : User Defined Encoder
Selected bitrate : 768 kBit/s
Quality : High
Add ID3 tag : No
Command line compressor : C:\Program Files (x86)\Exact Audio Copy\FLAC\FLAC.EXE
Additional command line options : -V -8 -T "Date=%year%" -T "Genre=%genre%" %source%


TOC of the extracted CD

Track | Start | Length | Start sector | End sector
––––––––––––––––––––––––––––-
1 | 0:00.00 | 2:22.65 | 0 | 10714
2 | 2:22.65 | 4:02.52 | 10715 | 28916
3 | 6:25.42 | 1:15.55 | 28917 | 34596
4 | 7:41.22 | 3:11.70 | 34597 | 48991
5 | 10:53.17 | 1:52.25 | 48992 | 57416
6 | 12:45.42 | 3:51.55 | 57417 | 74796
7 | 16:37.22 | 4:03.58 | 74797 | 93079
8 | 20:41.05 | 1:47.25 | 93080 | 101129
9 | 22:28.30 | 3:58.20 | 101130 | 118999
10 | 26:26.50 | 3:47.65 | 119000 | 136089
11 | 30:14.40 | 3:21.35 | 136090 | 151199
12 | 33:36.00 | 3:01.50 | 151200 | 164824
13 | 36:37.50 | 2:10.15 | 164825 | 174589


Range status and errors

Selected range

Filename K:\Emerson Lake & Palmer Discography\Studio\1971. Emerson Lake & Palmer - Tarkus\1971. Emerson Lake & Palmer - Tarkus (Manticore,CDOR 8214,Italy)\Emerson, Lake & Palmer - Tarkus.wav

Peak level 51.9 %
Extraction speed 13.6 X
Range quality 100.0 %
Test CRC 4B40EE40
Copy CRC 4B40EE40
Copy OK

No errors occurred


AccurateRip summary

Track 1 accurately ripped (confidence 5) [8C468B2F] (AR v2)
Track 2 accurately ripped (confidence 5) [354E6F8C] (AR v2)
Track 3 accurately ripped (confidence 5) [E400DFA5] (AR v2)
Track 4 accurately ripped (confidence 5) [15909C54] (AR v2)
Track 5 accurately ripped (confidence 5) [661D9013] (AR v2)
Track 6 accurately ripped (confidence 5) [B1040CF3] (AR v2)
Track 7 accurately ripped (confidence 5) [19B149A5] (AR v2)
Track 8 accurately ripped (confidence 5) [C8CEC799] (AR v2)
Track 9 accurately ripped (confidence 5) [90E17CBB] (AR v2)
Track 10 accurately ripped (confidence 5) [117AFFE8] (AR v2)
Track 11 accurately ripped (confidence 5) [EF8BD7C9] (AR v2)
Track 12 accurately ripped (confidence 5) [F7B7B531] (AR v2)
Track 13 accurately ripped (confidence 5) [4BECE02A] (AR v2)

All tracks accurately ripped

End of status report

–– CUETools DB Plugin V2.1.6

[CTDB TOCID: 9sZLJbEy36hJjpgdl40YK60m9Jg-] found
Submit result: 9sZLJbEy36hJjpgdl40YK60m9Jg- has been confirmed
Track | CTDB Status
1 | (8/8) Accurately ripped
2 | (8/8) Accurately ripped
3 | (8/8) Accurately ripped
4 | (8/8) Accurately ripped
5 | (8/8) Accurately ripped
6 | (8/8) Accurately ripped
7 | (8/8) Accurately ripped
8 | (8/8) Accurately ripped
9 | (8/8) Accurately ripped
10 | (8/8) Accurately ripped
11 | (8/8) Accurately ripped
12 | (8/8) Accurately ripped
13 | (8/8) Accurately ripped


==== Log checksum 499F7A65472BBC60A26D9621973B85191C9A96F2B78D75B966C0235158DC29FD ====


[CUETools log; Date: 11.11.2017 11:37:23; Version: 2.1.5]
[AccurateRip ID: 00123d56-00b8ac8c-c209170d] found.
Track [ CRC | V2 ] Status
01 [8ec2bacb|8c468b2f] (05+05/10) Accurately ripped
02 [64689d82|354e6f8c] (05+05/10) Accurately ripped
03 [c577c087|e400dfa5] (05+05/10) Accurately ripped
04 [77f05ea1|15909c54] (04+05/09) Accurately ripped
05 [5909e660|661d9013] (05+05/10) Accurately ripped
06 [424bb232|b1040cf3] (05+05/10) Accurately ripped
07 [a641d12d|19b149a5] (04+05/09) Accurately ripped
08 [380e4d09|c8cec799] (04+05/09) Accurately ripped
09 [85e27612|90e17cbb] (05+05/10) Accurately ripped
10 [c3a27c25|117affe8] (05+05/10) Accurately ripped
11 [d4555583|ef8bd7c9] (05+05/10) Accurately ripped
12 [5fbb6419|f7b7b531] (04+05/09) Accurately ripped
13 [a87ab52a|4bece02a] (05+05/10) Accurately ripped

Track Peak [ CRC32 ] [W/O NULL] [ LOG ]
– 51,9 [4B40EE40] [F7CBC691] CRC32
01 45,9 [F848FF97] [D2F7D414]
02 45,8 [4CDF362D] [FA648389]
03 44,7 [0EC02D0A] [C9F0902E]
04 47,8 [A06E072B] [D6821FDF]
05 49,8 [EB599761] [AD7F0628]
06 48,4 [67C4C669] [13DC904F]
07 51,9 [9E26FF9B] [36D1A6DA]
08 38,5 [43FDD6ED] [013F32B6]
09 37,3 [C8D79F06] [6B11D405]
10 20,9 [F870A4CC] [F8632399]
11 38,8 [5AA08C31] [15F0BDED]
12 38,9 [FFEEB4CC] [D0C9E869]
13 34,7 [29FDFE5B] [F7F43901]


Emerson, Lake & Palmer - Tarkus (1971)

All thanks go to alonzo

Emerson, Lake & Palmer or Emerson, Lake & Palmer in my Blog

Download Emerson, Lake & Palmer - Tarkus (1971):