Tags
Language
Tags

Emerson, Lake & Powell - Emerson, Lake & Powell (1986)

Posted By: gribovar
Emerson, Lake & Powell - Emerson, Lake & Powell (1986)

Emerson, Lake & Powell - Emerson, Lake & Powell (1986)
EAC Rip | FLAC (image+.cue+log) - 331 MB | Covers - 20 MB
Genre: Progressive Rock | RAR 3% Rec. | Label: Polydor (829 297-2), 1990

A rather courageous offshoot/reunion effort, considering the period in which it was done. There's more energy and purpose here than there was on any post-Works ELP album, and that makes it worthwhile for interested fans, though it wasn't going to make any new converts, either. One oddity is that Emerson, Lake & Powell cover Mars, The Bringer of War from Holst's The Planets, a piece that King Crimson first introduced as a rock adaptation when Lake was a member on tour back in 1969. This CD version features two bonus tracks, Goffin & King's "The Loco-Motion" along with "Vacant Possession," the latter track being an outtake from the original recording session.

Tracklist:
01. The Score
02. Learning To Fly
03. The Miracle
04. Touch And Go
05. Love Blind
06. Step Aside
07. Lay Down Your Guns
08. Mars, The Bringer Of War
09. The Loco-Motion (Bonus Track)
10. Vacant Possession (Bonus Track)

Total time: 52:23

Exact Audio Copy V1.0 beta 4 from 7. December 2014

EAC extraction logfile from 23. December 2014, 0:36

Emerson, Lake & Powell / Emerson, Lake & Powell (829 297-2)

Used drive : ATAPI iHAS124 B Adapter: 1 ID: 0

Read mode : Secure
Utilize accurate stream : Yes
Defeat audio cache : Yes
Make use of C2 pointers : No

Read offset correction : 6
Overread into Lead-In and Lead-Out : No
Fill up missing offset samples with silence : Yes
Delete leading and trailing silent blocks : No
Null samples used in CRC calculations : Yes
Used interface : Installed external ASPI interface

Used output format : User Defined Encoder
Selected bitrate : 128 kBit/s
Quality : High
Add ID3 tag : Yes
Command line compressor : C:\Program Files (x86)\Exact Audio Copy\Flac\flac.exe
Additional command line options : -V -8 -T "Date=%year%" -T "Genre=%genre%" %source%


TOC of the extracted CD

Track | Start | Length | Start sector | End sector
––––––––––––––––––––––––––––-
1 | 0:00.32 | 9:09.10 | 32 | 41216
2 | 9:09.42 | 3:51.28 | 41217 | 58569
3 | 13:00.70 | 7:03.47 | 58570 | 90341
4 | 20:04.42 | 3:38.65 | 90342 | 106756
5 | 23:43.32 | 3:10.28 | 106757 | 121034
6 | 26:53.60 | 3:47.20 | 121035 | 138079
7 | 30:41.05 | 4:23.15 | 138080 | 157819
8 | 35:04.20 | 7:57.55 | 157820 | 193649
9 | 43:02.00 | 4:39.10 | 193650 | 214584
10 | 47:41.10 | 4:41.62 | 214585 | 235721


Range status and errors

Selected range

Filename G:\CD\Emerson, Lake & Powell - Emerson, Lake & Powell.wav

Peak level 100.0 %
Extraction speed 6.1 X
Range quality 100.0 %
Test CRC 58CC4CB8
Copy CRC 58CC4CB8
Copy OK

No errors occurred


AccurateRip summary

Track 1 accurately ripped (confidence 5) [A38D1F90] (AR v2)
Track 2 accurately ripped (confidence 5) [FA7C7C4E] (AR v2)
Track 3 accurately ripped (confidence 5) [577DFED2] (AR v2)
Track 4 accurately ripped (confidence 5) [0E4590CB] (AR v2)
Track 5 accurately ripped (confidence 5) [D5EC9CFE] (AR v2)
Track 6 accurately ripped (confidence 5) [5B652AB9] (AR v2)
Track 7 accurately ripped (confidence 5) [76A4A5BF] (AR v2)
Track 8 accurately ripped (confidence 5) [6E0B4C97] (AR v2)
Track 9 accurately ripped (confidence 5) [21CE4247] (AR v2)
Track 10 accurately ripped (confidence 5) [2726BD06] (AR v2)

All tracks accurately ripped

End of status report

–– CUETools DB Plugin V2.1.4

[CTDB TOCID: 8IAXEhuqJYR1Jca.nxpnTDqMbKI-] found
Submit result: 8IAXEhuqJYR1Jca.nxpnTDqMbKI- has been confirmed
Track | CTDB Status
1 | (3/3) Accurately ripped
2 | (3/3) Accurately ripped
3 | (3/3) Accurately ripped
4 | (3/3) Accurately ripped
5 | (3/3) Accurately ripped
6 | (3/3) Accurately ripped
7 | (3/3) Accurately ripped
8 | (3/3) Accurately ripped
9 | (3/3) Accurately ripped
10 | (3/3) Accurately ripped


==== Log checksum 28E93F3F8C550F33E593792BB11171D84920504F9FC50B06603528835A3B804C ====

[CUETools log; Date: 10.09.2018 14:22:30; Version: 2.1.4]
Pregap length 00:00:32.
[CTDB TOCID: 8IAXEhuqJYR1Jca.nxpnTDqMbKI-] found.
Track | CTDB Status
1 | (64/65) Accurately ripped
2 | (64/65) Accurately ripped
3 | (63/65) Accurately ripped
4 | (64/65) Accurately ripped
5 | (65/65) Accurately ripped
6 | (65/65) Accurately ripped
7 | (64/65) Accurately ripped
8 | (64/65) Accurately ripped
9 | (64/65) Accurately ripped
10 | (63/65) Accurately ripped
[AccurateRip ID: 0014b7f2-00a1985d-7f0c460a] found.
Track [ CRC | V2 ] Status
01 [63efadc8|a38d1f90] (02+12/52) Accurately ripped
02 [63e2ab72|fa7c7c4e] (02+12/52) Accurately ripped
03 [164b4242|577dfed2] (02+12/53) Accurately ripped
04 [2a02f68a|0e4590cb] (02+12/53) Accurately ripped
05 [a6ca5925|d5ec9cfe] (02+12/53) Accurately ripped
06 [49bb655a|5b652ab9] (02+12/53) Accurately ripped
07 [717398e4|76a4a5bf] (02+12/53) Accurately ripped
08 [f1b068e7|6e0b4c97] (02+12/53) Accurately ripped
09 [0788c3cb|21ce4247] (02+12/53) Accurately ripped
10 [1ead48ab|2726bd06] (02+11/52) Accurately ripped
Offsetted by 18:
01 [81565c0d] (04/52) Accurately ripped
02 [96e2fb16] (04/52) Accurately ripped
03 [cb639339] (04/53) Accurately ripped
04 [38e7e233] (04/53) Accurately ripped
05 [06ddadb8] (04/53) Accurately ripped
06 [6d24091a] (04/53) Accurately ripped
07 [698534e6] (04/53) Accurately ripped
08 [9e53d497] (04/53) Accurately ripped
09 [a1335eff] (04/53) Accurately ripped
10 [1f83419f] (04/52) Accurately ripped
Offsetted by 682:
01 [bc796ce0] (13/52) Accurately ripped
02 [a8c805e7] (14/52) Accurately ripped
03 [c58e7933] (14/53) Accurately ripped
04 [6d53bebd] (14/53) Accurately ripped
05 [6ffec9b8] (14/53) Accurately ripped
06 [6ae2be1a] (14/53) Accurately ripped
07 [7dd5e8be] (14/53) Accurately ripped
08 [7ec3cad7] (14/53) Accurately ripped
09 [feac66ef] (14/53) Accurately ripped
10 [4d95d6df] (14/52) Accurately ripped
Offsetted by -664:
01 [288313a8] (00/52) No match (V2 was not tested)
02 [03555fe5] (00/52) No match (V2 was not tested)
03 [e65b4ac5] (00/53) No match (V2 was not tested)
04 [7968f8a8] (00/53) No match (V2 was not tested)
05 [6f6d9855] (00/53) No match (V2 was not tested)
06 [4bfcb05a] (00/53) No match (V2 was not tested)
07 [5d22e50c] (00/53) No match (V2 was not tested)
08 [114072a7] (00/53) No match (V2 was not tested)
09 [aa0fbbdb] (00/53) No match (V2 was not tested)
10 [39ea9a81] (00/52) No match (V2 was not tested)

Track Peak [ CRC32 ] [W/O NULL] [ LOG ]
– 99,9 [58CC4CB8] [5736D7B0] CRC32
01 99,9 [3FA86EC6] [E7B7818E]
02 85,9 [5EE45A06] [B897E445]
03 99,9 [C44B8E8E] [C5E89745]
04 99,9 [51988F2C] [96ACD855]
05 98,9 [2F93D452] [3F2D31AB]
06 94,9 [CB702CB7] [BE014773]
07 85,4 [57D3C969] [CCE594BF]
08 97,0 [EDF3384A] [6133BE9C]
09 75,8 [B60690C3] [A4D63A99]
10 81,2 [906B0F8D] [903EA71E]

Thanks to gerrV