Tags
Language
Tags
April 2024
Su Mo Tu We Th Fr Sa
31 1 2 3 4 5 6
7 8 9 10 11 12 13
14 15 16 17 18 19 20
21 22 23 24 25 26 27
28 29 30 1 2 3 4

Emil Gilels, David Oistrakh - Tchaikovsky: Piano Concerto No.1, Violin Concerto (1990)

Posted By: ArlegZ
Emil Gilels, David Oistrakh - Tchaikovsky: Piano Concerto No.1, Violin Concerto (1990)

Emil Gilels, David Oistrakh - Tchaikovsky: Piano Concerto No.1, Violin Concerto (1990)
EAC | FLAC | Image (Cue & Log) ~ 270 Mb | Total time: 70:15 | Scans included
Classical | Label: Sony Classical | # SBK 46339 | Recorded: 1959, 1980

TDavid Oistrakh was one of those violinists beloved by people who don't especially like violinists. Don't get me wrong, plenty of violin aficionados love him too. But the fact that he played with such warmth of tone and musicality, never indulging in the screeching cat-music stuff that some violinists think sounds flashy, makes him uniquely listenable to folks not into violin playing for its own sake. Perhaps the fact that he was also a distinguished conductor had something to do with it, for he always seems to know where he is–how everything fits together. His performance of the Tchaikovsky Violin Concerto is a case in point: soulful, exciting, never ragged or overblown. Add Emil Gilels' epic rendering of the Piano Concerto and how can you refuse?
–David Hurwitz

Performer:
Emil Gilels, piano (1-3)
New York Philharmonic (1-3)
Zubin Mehta, conductor (1-3)
David Oistrakh, violin (4-6)
The Philadelphia Orchestra (4-6)
Eugene Ormandy, conductor (4-6)

Tracklist:
Pyotr Ilyich Tchaikovsky (1840-1893)
Concerto No. 1 in B-flat minor for Piano and Orchestra, Op. 23
01. Allegro non troppo e molto maestoso - Allegro con spirito
02. Andantino semplice - Prestissimo - Tempo I
03. Allegro con fuoco
Concerto for Violin and Orchestra in D major, Op. 35
04. Allegro moderato
05. Canzonetta. Andante
06. Finale. Allegro vivacissimo


Exact Audio Copy V1.0 beta 3 from 29. August 2011

EAC extraction logfile from 6. November 2013, 12:38

Various Artists / Tchaikovsky - Piano Concerto No.1, Violin Concerto - Gilels, Oistrakh

Used drive : TSSTcorpCDDVDW SH-222BB Adapter: 2 ID: 1

Read mode : Secure
Utilize accurate stream : Yes
Defeat audio cache : Yes
Make use of C2 pointers : No

Read offset correction : 6
Overread into Lead-In and Lead-Out : No
Fill up missing offset samples with silence : Yes
Delete leading and trailing silent blocks : No
Null samples used in CRC calculations : Yes
Used interface : Native Win32 interface for Win NT & 2000

Used output format : User Defined Encoder
Selected bitrate : 1024 kBit/s
Quality : High
Add ID3 tag : No
Command line compressor : C:\Program Files\Exact Audio Copy\Flac\flac.exe
Additional command line options : -8 -V -T "TITLE=%title%" -T "ARTIST=%artist%" -T "ALBUMARTIST=%albumartist%" -T "ALBUM=%albumtitle%" -T "DATE=%year%" -T "TRACKNUMBER=%tracknr%" -T "TRACKTOTAL=%numtracks%" -T "GENRE=%genre%" -T "COMMENT=%comment%" -T "PERFORMER=%albuminterpret%" -T "COMPOSER=%composer%" %source% -o %dest%


TOC of the extracted CD

Track | Start | Length | Start sector | End sector
––––––––––––––––––––––––––––-
1 | 0:00.00 | 21:12.00 | 0 | 95399
2 | 21:12.00 | 6:55.15 | 95400 | 126539
3 | 28:07.15 | 6:56.10 | 126540 | 157749
4 | 35:03.25 | 18:53.02 | 157750 | 242726
5 | 53:56.27 | 6:40.18 | 242727 | 272744
6 | 60:36.45 | 9:39.55 | 272745 | 316224


Range status and errors

Selected range

Filename G:\Ripped general\[2576] Tchaikovsky – Piano Concerto No.1, Violin Concerto – Gilels, Oistrakh\Tchaikovsky - Piano Concerto No.1, Violin Concerto - Gilels, Oistrakh.wav

Peak level 86.9 %
Extraction speed 8.0 X
Range quality 100.0 %
Test CRC 73EB3AD7
Copy CRC 73EB3AD7
Copy OK

No errors occurred


AccurateRip summary

Track 1 accurately ripped (confidence 20) [2441DCB5] (AR v2)
Track 2 accurately ripped (confidence 20) [622353D2] (AR v2)
Track 3 accurately ripped (confidence 20) [8EA13122] (AR v2)
Track 4 accurately ripped (confidence 20) [B517AFD6] (AR v2)
Track 5 accurately ripped (confidence 20) [2D4450E7] (AR v2)
Track 6 accurately ripped (confidence 18) [E3A9C618] (AR v2)

All tracks accurately ripped

End of status report

Emil Gilels, David Oistrakh - Tchaikovsky: Piano Concerto No.1, Violin Concerto (1990)

Thanks to the original releaser