Tags
Language
Tags

Emma Kirkby, Jakob Lindberg, Lars Ulrik Mortensen - Cataldo Amodei: Solo cantatas (2004)

Posted By: ArlegZ
Emma Kirkby, Jakob Lindberg, Lars Ulrik Mortensen - Cataldo Amodei: Solo cantatas (2004)

Emma Kirkby, Jakob Lindberg, Lars Ulrik Mortensen - Cataldo Amodei: Solo cantatas (2004)
EAC | FLAC | Image (Cue & Log) ~ 350 Mb | Total time: 78:37 | Scans included
Classical | Label: BIS | BIS-1415 CD | Recorded: 2003

Emma Kirkby sounds as lithe and radiant as ever, superbly able to negotiate Amodei's melismatic writing and imbue it with subtle but effective rhetoric.
–BBC Music Magazine

Performer:
Emma Kirkby, soprano
Jakob Lindberg, theorbo/archlute
Lars Ulrik Mortensen, harpsichord

Track List:
Cataldo Amodei (1649-1693)
01. Su l´ore che l´aurora for voice, harpsichord and theorbo
02. Tra l´erbette il piè sciogliea for voice and harpsichord
Giovanni Zamboni (early 18th century)
Sonata in C minor for archlute
03. Preludio
04. Alemanda
05. Giga
06. Sarabanda
07. Gavotta
Cataldo Amodei
08. Va´, ché l´hai fatto a me for voice and archlute
09. Già col manto dell´ombre for voice and harpsichord
Bernardo Storace (1637- 1701)
10. Passagagli sopra Alamire for harpsichord solo
Cataldo Amodei
11. Colà dove il Sebeto for voice and archlute
12. Lieve al piè, grave al passo (Cantata sacra per la Beatissima Vergine) for voice, harpsichord and theorbo


Exact Audio Copy V1.3 from 2. September 2016

EAC extraction logfile from 6. October 2019, 9:36

Emma Kirkby / Cataldo Amodei

Used drive : hp DVD-RAM GH82N Adapter: 1 ID: 0

Read mode : Secure
Utilize accurate stream : Yes
Defeat audio cache : Yes
Make use of C2 pointers : No

Read offset correction : 667
Overread into Lead-In and Lead-Out : No
Fill up missing offset samples with silence : Yes
Delete leading and trailing silent blocks : No
Null samples used in CRC calculations : Yes
Used interface : Native Win32 interface for Win NT & 2000

Used output format : User Defined Encoder
Selected bitrate : 1024 kBit/s
Quality : High
Add ID3 tag : No
Command line compressor : C:\Program Files (x86)\Exact Audio Copy\FLAC\FLAC.EXE
Additional command line options : -6 -V -T "ARTIST=%artist%" -T "TITLE=%title%" -T "ALBUM=%albumtitle%" -T "DATE=%year%" -T "TRACKNUMBER=%tracknr%" -T "GENRE=%genre%" -T "COMMENT=%comment%" -T "BAND=%albuminterpret%" -T "ALBUMARTIST=%albuminterpret%" -T "COMPOSER=%composer%" %haslyrics%–tag-from-file=LYRICS="%lyricsfile%"%haslyrics% -T "DISCNUMBER=%cdnumber%" -T "TOTALDISCS=%totalcds%" -T "TOTALTRACKS=%numtracks%" %hascover%–picture="%coverfile%"%hascover% %source% -o %dest%


TOC of the extracted CD

Track | Start | Length | Start sector | End sector
––––––––––––––––––––––––––––-
1 | 0:00.00 | 12:00.52 | 0 | 54051
2 | 12:00.52 | 9:07.23 | 54052 | 95099
3 | 21:08.00 | 1:16.27 | 95100 | 100826
4 | 22:24.27 | 2:48.63 | 100827 | 113489
5 | 25:13.15 | 2:38.72 | 113490 | 125411
6 | 27:52.12 | 1:32.33 | 125412 | 132344
7 | 29:24.45 | 0:46.02 | 132345 | 135796
8 | 30:10.47 | 8:48.45 | 135797 | 175441
9 | 38:59.17 | 13:23.40 | 175442 | 235706
10 | 52:22.57 | 8:46.28 | 235707 | 275184
11 | 61:09.10 | 7:32.37 | 275185 | 309121
12 | 68:41.47 | 9:56.10 | 309122 | 353831


Range status and errors

Selected range

Filename C:\rips\Emma Kirkby - Cataldo Amodei.wav

Peak level 100.0 %
Extraction speed 3.3 X
Range quality 99.9 %
Test CRC 8DC81D76
Copy CRC 8DC81D76
Copy OK

No errors occurred


AccurateRip summary

Track 1 accurately ripped (confidence 7) [56C1DD6E] (AR v2)
Track 2 accurately ripped (confidence 7) [6E32166F] (AR v2)
Track 3 accurately ripped (confidence 7) [1CCC85E5] (AR v2)
Track 4 accurately ripped (confidence 7) [15AB29F5] (AR v2)
Track 5 accurately ripped (confidence 7) [40EAAC7D] (AR v2)
Track 6 accurately ripped (confidence 7) [FA4A5B75] (AR v2)
Track 7 accurately ripped (confidence 7) [0CF576C2] (AR v2)
Track 8 accurately ripped (confidence 7) [1B410025] (AR v2)
Track 9 accurately ripped (confidence 6) [6A47EF71] (AR v2)
Track 10 accurately ripped (confidence 6) [A50535B2] (AR v2)
Track 11 accurately ripped (confidence 6) [18D42A58] (AR v2)
Track 12 accurately ripped (confidence 7) [EAD12571] (AR v2)

All tracks accurately ripped

End of status report

–– CUETools DB Plugin V2.1.6

[CTDB TOCID: XuFLynIBGxrvbvfYH9SQVcTd4WM-] found
Submit result: XuFLynIBGxrvbvfYH9SQVcTd4WM- has been confirmed
Track | CTDB Status
1 | (7/8) Accurately ripped
2 | (7/8) Accurately ripped
3 | (7/8) Accurately ripped
4 | (7/8) Accurately ripped
5 | (7/8) Accurately ripped
6 | (7/8) Accurately ripped
7 | (7/8) Accurately ripped
8 | (7/8) Accurately ripped
9 | (7/8) Accurately ripped
10 | (7/8) Accurately ripped
11 | (7/8) Accurately ripped
12 | (6/8) Accurately ripped


==== Log checksum 081FB517F58680D7E108F78804350E3FDFB176600720D94C4CB2722852C898EF ====

Emma Kirkby, Jakob Lindberg, Lars Ulrik Mortensen - Cataldo Amodei: Solo cantatas (2004)

Thanks to the original releaser