Subcategories

Emmanuelle Bertrand, Pascal Amoyel - Alkan, Liszt (2001)

Posted By: tirexiss
Emmanuelle Bertrand, Pascal Amoyel - Alkan, Liszt (2001)

Emmanuelle Bertrand, Pascal Amoyel - Alkan, Liszt (2001)
EAC | APE (image+.cue, log) | Covers Included | 01:05:59 | 234 MB
Genre: Classical | Label: Harmonia Mundi | Catalog: HMC 901758

The Harmonia Mundi label doesn't pay a lot of lip service to music outside of its core, Baroque and back-centered repertoire, although it has achieved some marvelous things in contemporary music and, very occasionally, the off-the-beaten-path romantic repertoire. Emmanuelle Bertrand Plays Alkan and Liszt belongs to this last category, featuring cellist Emmanuelle Bertrand and pianist Pascal Amoyel in cello and piano works of two composers not at all generally associated with chamber music, Charles-Valentin Alkan and Franz Liszt. This is such an intelligent combination; the two were friends and almost exact contemporaries, and both only composed a little music for the cello. The Sonate de concert is a relatively late work for Alkan and quite long for a cello sonata at 33 minutes. It is quite different from his piano music in that for the most part the elements of characterization so often found in his other music give way to an admiration for classical form and balance, though it is quite romantic in tone, almost like Schumann. TheAdagio is genuinely lovely and restrained, and as a whole this piece makes one wish that Alkan had spent a bit more time exploring chamber forms, although as it was he had to pay out of his own pocket to get this sonata published. The prestissimo Finale alla saltarella is stated in Alkan's usual terms.
However, the Liszt is the most stunning music here; all of Liszt's cello music, like Alkan's, comes from late in his active career. La Lugubre gondola exists in at least four distinct and separate piano versions and the cello and piano incarnation is not a rescoring of any of these, but yet another version, and it is extraordinary. All of Liszt's funeral gondola pieces, along with another called R.W. – Venezia, were written from impressions of Richard Wagner's funeral procession in Venice, and there's something about this cello and piano version that is particularly moving and sounds in a distinctively European voice. Here, Bertrand is especially effective; while pulling off the bow-busting figurations in Alkan's saltarello was probably more difficult from the standpoint of pure playing, her careful and measured gradations of volume and innate sense of phrasing in La Lugubre gondola elevates this disc from the extraordinary to the essential. Much the same can be said of Die Zelle in Nonnenwerth and the two Élegies, and in all, Bertrand and Amoyel explore the spaces and draw palpable emotional strength from these late utterances of Liszt. If ever you're in the mood for a little Death in Venice and not necessarily from the movie, Emmanuelle Bertrand Plays Alkan and Liszt is the disc that you probably want; those who are devoted to romantic music for the cello will guard their copies jealously. This is the original 2001 issue of the disc; in 2008 it was re-released in Harmonia Mundi's HM Gold series.

Emmanuelle Bertrand, Pascal Amoyel - Alkan, Liszt (2001)

Track List:

Charles-Valentin Alkan:
[01]-[04] Sonate de concert pour piano et violoncelle op. 47

Franz Liszt:
[05] Premiére Elégie
[06] Deuxième Elégie
[07] La lugubre gondole (Troisième Elégie)
[08] Romance oubliée
[09] Die Zelle in Nonnenweth

Performers:
Emmanuelle Bertrand (cello)
Pascal Amoyel (piano)

EAC extraction logfile from 19. January 2006, 6:44 for CD
Emmanuelle Bertrand - Pascal Amoyel / Alkan - Liszt

Used drive : HL-DT-STCD-RW GCE-8527B Adapter: 0 ID: 2
Read mode : Secure with NO C2, accurate stream, disable cache
Read offset correction : 0
Overread into Lead-In and Lead-Out : No

Used output format : Internal WAV Routines
44.100 Hz; 16 Bit; Stereo

Other options :
Fill up missing offset samples with silence : Yes
Delete leading and trailing silent blocks : No
Native Win32 interface for Win NT & 2000


Range status and errors
Selected range
Filename C:\Documents and Settings\CDImage.wav

Peak level 86.5 %
Range quality 100.0 %
CRC CC73EE72
Copy OK

No errors occured

End of status report

[CUETools log; Date: 23.09.2017 11:28:03; Version: 2.1.5]
[CTDB TOCID: _n9w.VcFWVcYT0EBSOqmRW1LNOg-] found.
Track | CTDB Status
1 | (20/20) Accurately ripped
2 | (20/20) Accurately ripped
3 | (20/20) Accurately ripped
4 | (20/20) Accurately ripped
5 | (20/20) Accurately ripped
6 | (20/20) Accurately ripped
7 | (20/20) Accurately ripped
8 | (20/20) Accurately ripped
9 | (19/20) Accurately ripped
[AccurateRip ID: 0016a4c6-00a7ea31-780f7509] found.
Track [ CRC | V2 ] Status
01 [d456e2fa|ad0186a0] (00+00/30) No match
02 [ae9e0c85|0880719f] (00+00/30) No match
03 [1c8ea2f9|e30a6ec6] (00+00/31) No match
04 [cca9bc90|d0e41160] (00+00/31) No match
05 [bd5416e3|1337c16e] (00+00/31) No match
06 [6197b8fc|567c5099] (00+00/31) No match
07 [46147286|2307d636] (00+00/30) No match
08 [af537f52|291370ff] (00+00/29) No match
09 [634b4d4c|41192b2f] (00+00/30) No match
Offsetted by -12:
01 [a945ac39] (03/30) Accurately ripped
02 [c4f55dcf] (03/30) Accurately ripped
03 [90ffabb0] (03/31) Accurately ripped
04 [91986219] (03/31) Accurately ripped
05 [128be438] (03/31) Accurately ripped
06 [88dac8bc] (03/31) Accurately ripped
07 [ca171b52] (03/30) Accurately ripped
08 [1ce92c5c] (03/29) Accurately ripped
09 [f97bbdef] (03/30) Accurately ripped
Offsetted by 6:
01 [23cd8ac3] (06/30) Accurately ripped
02 [2260af36] (06/30) Accurately ripped
03 [5ea0e0ea] (06/31) Accurately ripped
04 [67a9e926] (06/31) Accurately ripped
05 [02a1294b] (06/31) Accurately ripped
06 [396761cc] (06/31) Accurately ripped
07 [0ec4b5bf] (06/30) Accurately ripped
08 [8772276c] (06/29) Accurately ripped
09 [a6024ecb] (06/30) Accurately ripped
Offsetted by 12:
01 [801e2b76] (00/30) No match (V2 was not tested)
02 [4ad5b8dd] (00/30) No match (V2 was not tested)
03 [51b63acd] (00/31) No match (V2 was not tested)
04 [33df813a] (00/31) No match (V2 was not tested)
05 [4daa3532] (00/31) No match (V2 was not tested)
06 [11c31a35] (00/31) No match (V2 was not tested)
07 [441f9ba6] (00/30) No match (V2 was not tested)
08 [5cc20e99] (00/29) No match (V2 was not tested)
09 [cd0e6a7f] (00/30) No match (V2 was not tested)

Track Peak [ CRC32 ] [W/O NULL] [ LOG ]
– 86,5 [BFA44B47] [CC73EE72] W/O NULL
01 69,8 [70EF5076] [2CA3ACC1]
02 60,7 [4814090B] [4FE969FB]
03 82,6 [BCCB40DD] [EA99271D]
04 47,3 [E7C08E23] [7D57641B]
05 33,6 [D8729C2E] [C846DB48]
06 86,5 [05280186] [214781C2]
07 67,7 [AE2FE79B] [69B8B913]
08 57,4 [158C8B6E] [E42C6D98]
09 75,0 [2C0AF245] [FF64E307]

Thanks to the Original ripper (unknown)!

Download: