Tags
Language
Tags

Emmylou Harris - Blue Kentucky Girl (1979)

Posted By: v3122
Emmylou Harris - Blue Kentucky Girl (1979)

Emmylou Harris - Blue Kentucky Girl (1979)
EAC | Flac(Image) + Cue + Log & MP3 CBR 320Kbps
2004 | Warner 8122-78112-2 | ~ 237 or 95 Mb | Artwork(jpg) -> 9.38 Mb
Country, Cajun, Bluegrass | Remastered

In response to criticism that her records weren't "country" enough, Harris recorded Blue Kentucky Girl, one of her most traditional outings. Relying on a more acoustic sound, the album largely forsakes contemporary pop songs in favor of standard country fare, including the Louvin Brothers' "Everytime You Leave" and Leon Payne's "They'll Never Take His Love from Me." The cover of Dallas Frazier's "Beneath Still Waters" earned Harris her fourth number one single.

by Jason Ankeny, allmusic
Emmylou Harris - Blue Kentucky Girl (1979):

Emmylou Harris - Blue Kentucky Girl (1979)

Tracklist:

01 Sister's Coming Home (with Tanya Tucker) (02:54)
02 Beneath Still Waters (03:43)
03 Rough And Rocky (03:53)
04 Hickory Wind (04:05)
05 Save The Last Dance For Me (03:41)
06 Sorrow In The Wind (with Sharon White & Cheryl White) (03:30)
07 They'll Never Take His Love From Me (02:37)
08 Everytime You Leave (with Don Everly) (03:00)
09 Blue Kentucky Girl (03:18)
10 Even Cowgirls Get The Blues (03:58)
11 Cheatin' Is (with Glen Campbell) (Bonus Track) (02:30)
12 I Know An Ending When It Comes (Bonus Track) (02:52)

EAC extraction logfile from 11. July 2007, 20:34 for CD
Emmylou Harris / Blue Kentucky Girl

Used drive : BENQ DVD DC DW1670 Adapter: 1 ID: 0
Read mode : Secure with NO C2, accurate stream, disable cache
Read offset correction : 102
Overread into Lead-In and Lead-Out : No

Used output format : C:\Program\FLAC\bin\flac.exe (User Defined Encoder)
256 kBit/s
Additional command line options : -8 -V -T "ARTIST=%a" -T "TITLE=%t" -T "ALBUM=%g" -T "DATE=%y" -T "TRACKNUMBER=%n" -T "GENRE=%m" -T "COMMENT=EAC Flac 1.1.4 -8" %s

Other options :
Fill up missing offset samples with silence : Yes
Delete leading and trailing silent blocks : No
Native Win32 interface for Win NT & 2000


Track 1
Filename C:\Documents and Settings\ellroy\Skrivbord\Emmylou Harris - Blue Kentucky Girl (1979) [FLAC]\01 - Sister's Coming Home.wav

Pre-gap length 0:00:02.00

Peak level 100.0 %
Track quality 100.0 %
Test CRC 5C668363
Copy CRC 5C668363
Copy OK

Track 2
Filename C:\Documents and Settings\ellroy\Skrivbord\Emmylou Harris - Blue Kentucky Girl (1979) [FLAC]\02 - Beneath Still Waters.wav

Pre-gap length 0:00:00.81

Peak level 88.8 %
Track quality 100.0 %
Test CRC 048E549B
Copy CRC 048E549B
Copy OK

Track 3
Filename C:\Documents and Settings\ellroy\Skrivbord\Emmylou Harris - Blue Kentucky Girl (1979) [FLAC]\03 - Rough And Rocky.wav

Pre-gap length 0:00:00.80

Peak level 96.4 %
Track quality 100.0 %
Test CRC D14AB2AE
Copy CRC D14AB2AE
Copy OK

Track 4
Filename C:\Documents and Settings\ellroy\Skrivbord\Emmylou Harris - Blue Kentucky Girl (1979) [FLAC]\04 - Hickory Wind.wav

Pre-gap length 0:00:00.88

Peak level 88.7 %
Track quality 100.0 %
Test CRC 743A1814
Copy CRC 743A1814
Copy OK

Track 5
Filename C:\Documents and Settings\ellroy\Skrivbord\Emmylou Harris - Blue Kentucky Girl (1979) [FLAC]\05 - Save The Last Dance For Me.wav

Pre-gap length 0:00:01.12

Peak level 91.2 %
Track quality 100.0 %
Test CRC 38EAD44A
Copy CRC 38EAD44A
Copy OK

Track 6
Filename C:\Documents and Settings\ellroy\Skrivbord\Emmylou Harris - Blue Kentucky Girl (1979) [FLAC]\06 - Sorrow In The Wind.wav

Pre-gap length 0:00:00.54

Peak level 80.1 %
Track quality 99.9 %
Test CRC 58B86B20
Copy CRC 58B86B20
Copy OK

Track 7
Filename C:\Documents and Settings\ellroy\Skrivbord\Emmylou Harris - Blue Kentucky Girl (1979) [FLAC]\07 - They'll Never Take His Love From Me.wav

Pre-gap length 0:00:00.53

Peak level 90.6 %
Track quality 100.0 %
Test CRC 320AABE9
Copy CRC 320AABE9
Copy OK

Track 8
Filename C:\Documents and Settings\ellroy\Skrivbord\Emmylou Harris - Blue Kentucky Girl (1979) [FLAC]\08 - Everytime You Leave.wav

Pre-gap length 0:00:02.06

Peak level 86.4 %
Track quality 100.0 %
Test CRC 5C273137
Copy CRC 5C273137
Copy OK

Track 9
Filename C:\Documents and Settings\ellroy\Skrivbord\Emmylou Harris - Blue Kentucky Girl (1979) [FLAC]\09 - Blue Kentucky Girl.wav

Pre-gap length 0:00:01.25

Peak level 88.3 %
Track quality 99.9 %
Test CRC D8DBCE46
Copy CRC D8DBCE46
Copy OK

Track 10
Filename C:\Documents and Settings\ellroy\Skrivbord\Emmylou Harris - Blue Kentucky Girl (1979) [FLAC]\10 - Even Cowgirls Get The Blues.wav

Pre-gap length 0:00:01.05

Peak level 89.0 %
Track quality 100.0 %
Test CRC 2D797256
Copy CRC 2D797256
Copy OK

Track 11
Filename C:\Documents and Settings\ellroy\Skrivbord\Emmylou Harris - Blue Kentucky Girl (1979) [FLAC]\11 - Cheatin' Is.wav

Pre-gap length 0:00:01.70

Peak level 59.5 %
Track quality 100.0 %
Test CRC B29F81F6
Copy CRC B29F81F6
Copy OK

Track 12
Filename C:\Documents and Settings\ellroy\Skrivbord\Emmylou Harris - Blue Kentucky Girl (1979) [FLAC]\12 - I Know An Ending When It Comes.wav

Pre-gap length 0:00:01.66

Peak level 61.9 %
Track quality 99.9 %
Test CRC 41E6DC45
Copy CRC 41E6DC45
Copy OK

No errors occured


End of status report


[CUETools log; Date: 04.08.2021 18:39:34; Version: 2.1.4]
[AccurateRip ID: 0012757f-00ab79da-9e095f0c] found.
Track [ CRC | V2 ] Status
01 [82bc0376|5ee0551f] (017+047/134) Accurately ripped
02 [77ceb42c|f227a2aa] (016+047/133) Accurately ripped
03 [21fbee69|16b823e2] (016+047/133) Accurately ripped
04 [e0d19fda|53b3eba1] (017+047/134) Accurately ripped
05 [37f430ab|c0d98bfa] (016+047/133) Accurately ripped
06 [c2a14b5b|f36e9817] (016+047/133) Accurately ripped
07 [617b6f24|b52a3a8b] (016+047/133) Accurately ripped
08 [3ee2f12e|d693d116] (015+047/132) Accurately ripped
09 [fe1430ae|82a661ad] (016+047/133) Accurately ripped
10 [3f1f0cee|0f0f708e] (015+047/132) Accurately ripped
11 [8855fd9d|dbbf108a] (015+046/130) Accurately ripped
12 [7b072a14|58f193f2] (013+046/129) Accurately ripped
Offsetted by -6:
01 [260b0efb] (029/134) Accurately ripped
02 [c330e047] (029/133) Accurately ripped
03 [5c231366] (029/133) Accurately ripped
04 [e3b6fe35] (029/134) Accurately ripped
05 [162a527a] (029/133) Accurately ripped
06 [e3fabeb7] (029/133) Accurately ripped
07 [79ee4383] (029/133) Accurately ripped
08 [83f3c958] (029/132) Accurately ripped
09 [0abf67b1] (029/133) Accurately ripped
10 [471aba43] (029/132) Accurately ripped
11 [6ea8718c] (029/130) Accurately ripped
12 [8293ea63] (029/129) Accurately ripped

Track Peak [ CRC32 ] [W/O NULL] [ LOG ]
– 100,0 [BFB6E975] [E4EB1EC5]
01 100,0 [5C668363] [197119FA] CRC32
02 88,8 [048E549B] [75CB2273] CRC32
03 96,4 [D14AB2AE] [5E7096F0] CRC32
04 88,7 [743A1814] [4448B465] CRC32
05 91,2 [38EAD44A] [B2C39690] CRC32
06 80,1 [58B86B20] [F4F36385] CRC32
07 90,6 [320AABE9] [D04A1EF3] CRC32
08 86,4 [5C273137] [9763989D] CRC32
09 88,3 [D8DBCE46] [58EB15D7] CRC32
10 89,0 [2D797256] [BC400AA9] CRC32
11 59,5 [B29F81F6] [06EC4DEE] CRC32
12 61,9 [41E6DC45] [3349E739] CRC32


Emmylou Harris - Blue Kentucky Girl (1979)

All thanks go to the original releaser

Emmylou Harris in my Blog

Download Emmylou Harris - Blue Kentucky Girl (1979):