Tags
Language
Tags

Emmylou Harris - Brand New Dance (1990)

Posted By:
Emmylou Harris - Brand New Dance (1990)

Emmylou Harris - Brand New Dance (1990)
EAC | Flac(Image) + Cue + Log & MP3 CBR 320Kbps
Reprise, 9 26309-2 | ~ 219 or 92 Mb | Scans
Folk, World, Country

In 1990, Emmylou Harris' run of superb mid-'70s albums was over, and she hadn't yet assembled the Nash Ramblers, the acoustic band that gave her music a heady kick-start prior to her first striking collaboration with Daniel Lanois, Wrecking Ball. As a result, Brand New Dance captures Harris at the end of one cycle and just before the start of another, and the material and production suggest Harris was ready for some changes. Emmylou Harris probably couldn't make a truly bad album if she tried, and as always, she's in lovely voice on Brand New Dance, but she doesn't always sound especially engaged with the material, most of which falls into the "good-but-not-great" category (notable exceptions – a strong cover of Bruce Springsteen's "Tougher Than the Rest" and the title cut). In addition, producer Allen Reynolds puts a shade too much pop-friendly gloss on the arrangements and mix for several of these tunes, and despite the presence of a truly impressive team of accompanists, this album never quite catches fire as in Harris' best work. Brand New Dance is a strong and professional piece of work, but Harris' next few albums would remind fans she was capable of a lot more than that.

by Mark Deming, allmusic
Emmylou Harris - Brand New Dance (1990):

Emmylou Harris - Brand New Dance (1990)

Tracklist:

01. Wheels of Love (02:45)
02. Tougher Than the Rest (05:01)
03. In His World (04:15)
04. Sweet Dreams of You (03:56)
05. Easy for You to Say (03:24)
06. Rollin' and Ramblin' (The Death of Hank Williams) (03:30)
07. Better Off Without You (05:18)
08. Never Be Anyone Else But You (02:21)
09. Brand New Dance (03:28)
10. Red Red Rose (03:56)

Converted to Image (CUETools 2.1.4)

Exact Audio Copy V0.99 prebeta 4 from 23. January 2008

EAC extraction logfile from 10. June 2009, 19:46

Emmylou Harris / Brand New Dance

Used drive : CREATIVECD-RW RW121032E Adapter: 1 ID: 0

Read mode : Secure
Utilize accurate stream : Yes
Defeat audio cache : Yes
Make use of C2 pointers : No

Read offset correction : 99
Overread into Lead-In and Lead-Out : No
Fill up missing offset samples with silence : Yes
Delete leading and trailing silent blocks : No
Null samples used in CRC calculations : Yes
Used interface : Native Win32 interface for Win NT & 2000
Gap handling : Appended to previous track

Used output format : User Defined Encoder
Selected bitrate : 320 kBit/s
Quality : High
Add ID3 tag : No
Command line compressor : C:\Program Files\FLAC\flac.exe
Additional command line options : -8 -V -T "ARTIST=%a" -T "TITLE=%t" -T "ALBUM=%g" -T "DATE=%y" -T "TRACKNUMBER=%n" -T "TOTALTRACKS=%x" -T "GENRE=%m" -T "ALBUMARTIST=%v" -T "ALBUM ARTIST=%v" -T "COMMENT=EAC V0.99 prebeta 4, Secure Mode, Test & Copy, Accurat


TOC of the extracted CD

Track | Start | Length | Start sector | End sector
––––––––––––––––––––––––––––-
1 | 0:00.33 | 2:43.72 | 33 | 12329
2 | 2:44.30 | 5:01.03 | 12330 | 34907
3 | 7:45.33 | 4:14.62 | 34908 | 54019
4 | 12:00.20 | 3:56.23 | 54020 | 71742
5 | 15:56.43 | 3:23.50 | 71743 | 87017
6 | 19:20.18 | 3:29.40 | 87018 | 102732
7 | 22:49.58 | 5:17.60 | 102733 | 126567
8 | 28:07.43 | 2:21.10 | 126568 | 137152
9 | 30:28.53 | 3:28.35 | 137153 | 152787
10 | 33:57.13 | 3:56.15 | 152788 | 170502


Track 1

Filename D:\downloads 2\EAC rips\01 - Wheels Of Love.wav

Pre-gap length 0:00:02.44

Peak level 89.1 %
Track quality 100.0 %
Test CRC 6207085E
Copy CRC 6207085E
Accurately ripped (confidence 4) [75136BBE]
Copy OK

Track 2

Filename D:\downloads 2\EAC rips\02 - Tougher Than The Rest.wav

Pre-gap length 0:00:01.06

Peak level 79.4 %
Track quality 100.0 %
Test CRC 9D1632C7
Copy CRC 9D1632C7
Accurately ripped (confidence 4) [755ED237]
Copy OK

Track 3

Filename D:\downloads 2\EAC rips\03 - In His World.wav

Pre-gap length 0:00:02.33

Peak level 67.5 %
Track quality 100.0 %
Test CRC 3706317E
Copy CRC 3706317E
Accurately ripped (confidence 4) [F3ED9EB7]
Copy OK

Track 4

Filename D:\downloads 2\EAC rips\04 - Sweet Dreams Of You.wav

Pre-gap length 0:00:00.53

Peak level 89.1 %
Track quality 100.0 %
Test CRC 062EFA80
Copy CRC 062EFA80
Accurately ripped (confidence 4) [432C4A2B]
Copy OK

Track 5

Filename D:\downloads 2\EAC rips\05 - Easy For You To Say.wav

Pre-gap length 0:00:00.97

Peak level 72.3 %
Track quality 100.0 %
Test CRC 93CAF815
Copy CRC 93CAF815
Accurately ripped (confidence 4) [0770BABB]
Copy OK

Track 6

Filename D:\downloads 2\EAC rips\06 - Rollin' And Ramblin' (The Death Of Hank Williams).wav

Pre-gap length 0:00:02.04

Peak level 89.1 %
Track quality 99.9 %
Test CRC 7D40B994
Copy CRC 7D40B994
Accurately ripped (confidence 4) [7B9603A7]
Copy OK

Track 7

Filename D:\downloads 2\EAC rips\07 - Better Off Without You.wav

Pre-gap length 0:00:02.26

Peak level 75.8 %
Track quality 99.9 %
Test CRC B68B0FE5
Copy CRC B68B0FE5
Accurately ripped (confidence 4) [148704D9]
Copy OK

Track 8

Filename D:\downloads 2\EAC rips\08 - Never Be Anyone Else But You.wav

Pre-gap length 0:00:00.26

Peak level 83.3 %
Track quality 99.9 %
Test CRC 3973DBB2
Copy CRC 3973DBB2
Accurately ripped (confidence 4) [49F30577]
Copy OK

Track 9

Filename D:\downloads 2\EAC rips\09 - Brand New Dance.wav

Pre-gap length 0:00:00.57

Peak level 85.3 %
Track quality 100.0 %
Test CRC 5BCDF38C
Copy CRC 5BCDF38C
Accurately ripped (confidence 4) [BCBE3C5C]
Copy OK

Track 10

Filename D:\downloads 2\EAC rips\10 - Red Red Rose.wav

Pre-gap length 0:00:02.66

Peak level 66.4 %
Track quality 100.0 %
Test CRC D641DCFF
Copy CRC D641DCFF
Accurately ripped (confidence 4) [C83A31AC]
Copy OK


All tracks accurately ripped

No errors occurred

End of status report

foobar2000 1.2.9 / Dynamic Range Meter 1.1.1
log date: 2017-06-12 18:34:42

––––––––––––––––––––––––––––––––––––––––
Analyzed: Emmylou Harris / Brand New Dance
––––––––––––––––––––––––––––––––––––––––

DR Peak RMS Duration Track
––––––––––––––––––––––––––––––––––––––––
DR12 -1.00 dB -17.53 dB 2:44 01-Wheels Of Love
DR14 -2.00 dB -18.71 dB 5:01 02-Tougher Than The Rest
DR12 -3.40 dB -18.42 dB 4:15 03-In His World
DR14 -1.00 dB -18.61 dB 3:56 04-Sweet Dreams Of You
DR12 -2.81 dB -18.59 dB 3:24 05-Easy For You To Say
DR12 -1.00 dB -16.17 dB 3:30 06-Rollin' And Ramblin' (The Death Of Hank Williams)
DR13 -2.40 dB -20.48 dB 5:18 07-Better Off Without You
DR13 -1.58 dB -17.74 dB 2:21 08-Never Be Anyone Else But You
DR12 -1.37 dB -16.82 dB 3:28 09-Brand New Dance
DR12 -3.54 dB -18.67 dB 3:56 10-Red Red Rose
––––––––––––––––––––––––––––––––––––––––

Number of tracks: 10
Official DR value: DR13

Samplerate: 44100 Hz
Channels: 2
Bits per sample: 16
Bitrate: 776 kbps
Codec: FLAC

[CUETools log; Date: 12.06.2017 18:34:50; Version: 2.1.4]
Pregap length 00:00:33.
[CTDB TOCID: dQgcCM2AL4bQzkba8JO8NvVSsUo-] found.
Track | CTDB Status
1 | (12/15) Accurately ripped
2 | (13/15) Accurately ripped
3 | (13/15) Accurately ripped
4 | (13/15) Accurately ripped
5 | (13/15) Accurately ripped
6 | (13/15) Accurately ripped
7 | (13/15) Accurately ripped
8 | (14/15) Accurately ripped
9 | (13/15) Accurately ripped
10 | (13/15) Accurately ripped
[AccurateRip ID: 000e7e25-0073e709-8908e10a] found.
Track [ CRC | V2 ] Status
01 [75136bbe|f698f933] (10+14/35) Accurately ripped
02 [755ed237|c138180e] (11+13/35) Accurately ripped
03 [f3ed9eb7|0bc78be2] (11+12/34) Accurately ripped
04 [432c4a2b|1deec5f9] (11+13/35) Accurately ripped
05 [0770babb|f6094625] (11+14/36) Accurately ripped
06 [7b9603a7|4200b38a] (11+13/35) Accurately ripped
07 [148704d9|0f816fd2] (11+13/35) Accurately ripped
08 [49f30577|4e7204c0] (11+13/35) Accurately ripped
09 [bcbe3c5c|6b195576] (11+11/33) Accurately ripped
10 [c83a31ac|ada9711e] (11+12/34) Accurately ripped
Offsetted by 1987:
01 [dcc90339] (06/35) Accurately ripped
02 [a133149c] (06/35) Accurately ripped
03 [21ea250b] (06/34) Accurately ripped
04 [470259ac] (06/35) Accurately ripped
05 [478c1fdf] (06/36) Accurately ripped
06 [e11cfd09] (06/35) Accurately ripped
07 [29ef85cc] (06/35) Accurately ripped
08 [ec93e08c] (06/35) Accurately ripped
09 [3d995c71] (06/33) Accurately ripped
10 [69612add] (06/34) Accurately ripped
Offsetted by 1720:
01 [449fa0e3] (00/35) No match (V2 was not tested)
02 [129bd12e] (00/35) No match (V2 was not tested)
03 [3b27d40c] (00/34) No match (V2 was not tested)
04 [379d943c] (00/35) No match (V2 was not tested)
05 [debe4f3f] (00/36) No match (V2 was not tested)
06 [990fdbe1] (00/35) No match (V2 was not tested)
07 [40c36ee3] (00/35) No match (V2 was not tested)
08 [4e73a269] (00/35) No match (V2 was not tested)
09 [e33bc164] (00/33) No match (V2 was not tested)
10 [5eef1014] (00/34) No match (V2 was not tested)

Track Peak [ CRC32 ] [W/O NULL] [ LOG ]
– 89,1 [60EF3DEA] [F052C7CF]
01 89,1 [6207085E] [5A6645C4] CRC32
02 79,4 [9D1632C7] [39736FBA] CRC32
03 67,5 [3706317E] [3229FC24] CRC32
04 89,1 [062EFA80] [CC46C094] CRC32
05 72,3 [93CAF815] [AFF19431] CRC32
06 89,1 [7D40B994] [A0F82762] CRC32
07 75,8 [B68B0FE5] [189D5949] CRC32
08 83,3 [3973DBB2] [3DC24EFB] CRC32
09 85,3 [5BCDF38C] [B1E1386D] CRC32
10 66,4 [D641DCFF] [9CA87D91] CRC32

Emmylou Harris - Brand New Dance (1990)

All thanks go to the original releaser

Emmylou Harris in my Blog

Download Emmylou Harris - Brand New Dance (1990):