Subcategories

Engel - Absolute Design (2007)

Posted By: v3122
Engel - Absolute Design (2007)

Engel - Absolute Design (2007)
EAC | Flac(Image) + Cue + Log & MP3 CBR 320Kbps
SPV 98362 CD | ~ 360 or 110 Mb | Artwork(jpg) -> 27 Mb
Melodic Death Metal, Modern Metal

Reading Absolute Design's credits, it would be easy to assume that the 2007 debut release by Engel contains either death metal or black metal (or perhaps a combination of the two). Founded by guitarist Niclas Engelin (who was with In Flames in the late '90s), this Swedish band also includes drummer Daniel "Mojjo" Moilanen, formerly of Lord Belial; on top of that, Engel's first official full-length album was produced by Anders Fridén (known for his work as In Flames' lead singer) and Daniel Bergstrand (who has produced In Flames). So with those In Flames and Lord Belial associations, is there any reason one wouldn't expect to hear some Nordic death metal or Nordic black metal on Absolute Design? But Absolute Design is neither black metal nor death metal; in fact, it's alternative metal with some metalcore-ish moves at times. Engel don't sound anything like In Flames or Lord Belial – actually, what this band sounds like is a heavier, more intense and metalcore-friendly version of Staind. Engel definitely rock much harder and more intensely than Staind, but they are darkly melodic in a way that does bring to mind Staind's moodiness. The metalcore factor, meanwhile, comes into play mainly because of Mangan Klavborn's lead vocals; although there are more clean vocals than extreme vocals on this 46-minute CD, Klavborn gets in his share of harsh, metalcore-type screaming. But unlike the straight-ahead metalcore albums that are viciously punishing from start to finish, Absolute Design is decidedly melodic and gives the listener a lot more breathing room than a straight-ahead metalcore album would. Staind fans might disagree with the Staind/Engel comparison because Engel are much louder and harsher, but melodically, there is clearly a parallel. Absolute Design falls short of mind-blowing, although it is a decent outing that manages to achieve a healthy balance of nuance and alt-metal intensity.

by Alex Henderson, allmusic
Engel - Absolute Design (2007)

Engel - Absolute Design (2007):

Engel - Absolute Design (2007)

Tracklist:

01. In Splendour
02. Casket Closing
03. Next Closed Door
04. The Hurricane Season
05. Propaganda
06. The Paraclete
07. Scyth
08. Descend
09. Trial & Error
10. I'm The One
11. Calling Out
12. Seven Ends

Отчёт EAC об извлечении, выполненном 11. марта 2008, 23:40 для диска:
Engel / Absolute Design

Дисковод: PLEXTOR DVDR PX-760A Adapter: 0 ID: 0
Режим чтения: Достоверный (C2: нет, Точный поток: да, Отключение кэша: да)
Коррекция смещения при чтении: 30
Способность читать области Lead-in и Lead-out : Нет

Выходной формат: C:\Program Files\Monkey's Audio\MAC.exe (Monkey's Audio (без потерь))
High Lossless Compression

Другие параметры:
Заполнение пропущенных сэмплов тишиной : Да
Удаление блоков с тишиной в начале и конце : Нет
Установленный внешний ASPI-интерфейс


Характеристики диапазона извлечения и сообщения об ошибках
Выбранный диапазон
Имя файла D:\MUSIC\Engel - Absolute Design.wav

Пиковый уровень 97.7 %
Качество диапазона 100.0 %
CRC 1A26B689
Копирование… OK

Ошибок не произошло

Конец отчёта


[CUETools log; Date: 12.01.2019 6:24:22; Version: 2.1.4]
[AccurateRip ID: 0013fd56-00bca01b-8c0af00c] found.
Track [ CRC | V2 ] Status
01 [15e4c781|553eca86] (00+00/20) No match
02 [2f15bb05|8ea9f97c] (00+00/20) No match
03 [72cc65c0|9410eb65] (00+00/20) No match
04 [62e44235|83f01f14] (00+00/20) No match
05 [8f1e9bb1|350bdcf3] (00+00/20) No match
06 [1038dba5|ac9a33c2] (00+00/20) No match
07 [6011b231|2182a819] (00+00/20) No match
08 [84a7ae9b|0b766753] (00+00/20) No match
09 [c81d4a7c|eb35168f] (00+00/20) No match
10 [0c724d40|2e2733e4] (00+00/20) No match
11 [274c4943|119c34a1] (00+00/20) No match
12 [36e205b7|0f6c3b88] (00+00/20) No match
Offsetted by 664:
01 [d116a5b9] (10/20) Accurately ripped
02 [3b78df0f] (10/20) Accurately ripped
03 [26813247] (10/20) Accurately ripped
04 [5e8a6708] (10/20) Accurately ripped
05 [7cc0deda] (10/20) Accurately ripped
06 [18f9121b] (10/20) Accurately ripped
07 [75058f41] (10/20) Accurately ripped
08 [51830444] (10/20) Accurately ripped
09 [df6bd429] (10/20) Accurately ripped
10 [0dc4cc1c] (10/20) Accurately ripped
11 [e416ac54] (10/20) Accurately ripped
12 [582b3cb9] (10/20) Accurately ripped

Track Peak [ CRC32 ] [W/O NULL]
– 97,7 [1A26B689] [A5A174FC]
01 96,6 [5E26C7D9] [FF32B59A]
02 97,7 [608B336D] [0BF54B78]
03 96,6 [7A3705A8] [8D3946F0]
04 96,6 [B603A984] [368096C9]
05 96,6 [B4A0003A] [B0CC400E]
06 96,6 [8CE00D37] [05674964]
07 96,6 [CE2D228A] [648B8FAB]
08 96,6 [EF729A35] [46A9B77D]
09 96,6 [71E9D5BA] [ADA71FCC]
10 96,6 [4AE2BB68] [A017CF19]
11 95,0 [8705671A] [5659E53F]
12 94,9 [4F462CE0] [D7DFD868]


Engel - Absolute Design (2007)

All thanks go to anvic

Download Engel - Absolute Design (2007):