Tags
Language
Tags
June 2024
Su Mo Tu We Th Fr Sa
26 27 28 29 30 31 1
2 3 4 5 6 7 8
9 10 11 12 13 14 15
16 17 18 19 20 21 22
23 24 25 26 27 28 29
30 1 2 3 4 5 6

Enrico Caruso - The Complete Recordings (2004) (12 CDs Box Set)

Posted By: murena
Enrico Caruso - The Complete Recordings (2004) (12 CDs Box Set)

Enrico Caruso - The Complete Recordings (2004) (12 CDs Box Set)
EAC Rip | FLAC (Tracks+.cue, log) | 12 CDs, 14:33:25 min | 2,2 Gb | Scans -> 27 mb
Genre: Classical, Opera / Label: Naxos Historical

Complete collection of Caruso's performance. the original recording untouched by digital reprocessing makes it even more attractive to me. it makes a great contrast to modern recordings of the contemporary tenors. the modern recording sound so artificial and computer enhanced in comparison - one might as week call them computer generated arias.

Enrico Caruso - The Complete Recordings (2004) (12 CDs Box Set)

VOLUMES:
Volume 1: Recorded 1902-1903
Volume 2: Recorded 1903-1906
Volume 3: Recorded 1906-1908
Volume 4: Recorded 1908-1910
Volume 5: Recorded 1908-1910
Volume 6: Recorded 1911-1912
Volume 7: Recorded 1912-1913
Volume 8: Recorded 1913-1914
Volume 9: Recorded 1914-1916
Volume 10: Recorded 1916-1917
Volume 11: Recorded 1918-1919
Volume 12: Recorded 1902-1920

Disc: 1
1. Germania, opera: Studenti, udite
2. Germania, opera: Ah, vieni qui…No, non chiuder gli occhi
3. Rigoletto, opera: Questa o quella
4. Aida, opera: Celeste Aida
5. Manon, opera in 5 acts: O dolce incanto
6. L'elisir d'amore, opera: Una furtiva lagrima
7. Mefistofele, opera in prologue, 4 acts & epilogue: Dai campi, dai prati
8. Mefistofele, opera in prologue, 4 acts & epilogue: Giunto sul passo estremo
9. Tosca, opera: E lucevan le stelle
10. Iris, opera (melodramma) in 3 acts: Apri la tua finestra
11. Mefistofele, opera in prologue, 4 acts & epilogue: Dai campi, dai prati
12. Fedora, opera: Amor ti vieta
13. Aida, opera: Celeste Aida
14. La Gioconda, opera in 4 acts: Cielo e mar!
15. Pagliacci, opera: Vesti la giubba
16. Cavalleria rusticana, opera (melodramma) in 1 act: O Lola
17. La Mia canzone, for voice & piano/orchestra
18. Luna fedel, for voice & piano
19. Un Bacio ancora, for voice & piano
20. Luna fedel, for voice & piano
21. L'elisir d'amore, opera: Una furtiva lagrima
22. Tosca, opera: E lucevan le stelle
23. Germania, opera: No, non chiuder
24. Cavalleria rusticana, opera (melodramma) in 1 act: O Lola
Disc: 2
1. Tosca, opera: E lucevan le stelle
2. Les Huguenots, grand opera in 5 acts: Qui sotto il ciel
3. Rigoletto, opera: Questa o quella
4. L'elisir d'amore, opera: Una furtiva lagrima
5. Aida, opera: Celeste Aida
6. Tosca, opera: Recondita armonia
7. Tosca, opera: E lucevan le stelle
8. Cavalleria rusticana, opera (melodramma) in 1 act: Siciliana
9. Pagliacci, opera: Vesti la giubba
10. Manon, opera in 5 acts: II Sogno: Chiudo gli occhi
11. Mattinata ('L'aurora di bianco vestita'), song for voice & piano (or orchestra)
12. Carmen, opera: Il fior che avevi a me
13. Les Huguenots, grand opera in 5 acts: Bianca al par di neve alpina
14. La Gioconda, opera in 4 acts: Cielo e mar!
15. Cavalleria rusticana, opera (melodramma) in 1 act: Brindisi
16. Martha, opera: M'appari tutt'amor
17. Faust, opera: Salut, demeure chaste et pure
18. Il Trovatore, opera: Di quella pira
19. La favorita, opera: Romanza: Spirito gentil, ne'sogni miei
Disc: 3
1. Aida, opera: Celeste Aida
2. La forza del destino, opera: Solenne in quest'ora
3. Triste Ritorno for voice & orchestra
4. Ideale for voice & piano (or orchestra)
5. L' Africaine, grand opera in 5 acts: O paradiso
6. Rigoletto, opera: Bella figlia dell'amore
7. Pagliacci, opera: Vesti la giubba
8. Adorables Tourments for voice & orchestra 'Valse Lente'
9. Rigoletto, opera: Bella figlia dell'amore
10. Lucia di Lammermoor, opera: Chi mi frena in tal momento?
11. Madama Butterfly (Madame Butterfly), opera: O quanti occhi fisi
12. Rigoletto, opera: Bella figlia dell'amore
Disc: 4
1. Lolita, serenata spagnola for voice & orchestra
2. Rigoletto, opera: Questo o quella
3. Il Trovatore, opera: Ah, si ben mio
4. Il Trovatore, opera: Ai nostri monti ritorneremo
5. Aida, opera: Celeste Aida
6. Pour un Baiser for voice & piano (or orchestra)
7. Mamma mia, che vo' sapè, for voice & orchestra
8. La forza del destino, opera: O tu che in seno agli angeli
9. Tosca, opera: Recondita armonia
10. Tosca, opera: E lucevan le stelle
11. Aida, opera: La fatal pietra
12. Aida, opera: O terra addio
13. Carmen, opera: Il fior che avevi a me tu dato
14. Les Huguenots, grand opera in 5 acts: Bianca al par di neve Alpina
15. Il Trovatore, opera: Miserere, Ah! che la morte ognora
16. Il Trovatore, opera: Miserere, Ah! che la morte ognora
17. Martha, opera: Solo, profugo, reietto!
Disc: 5
1. Faust, opera: O merveille!
2. Faust, opera: Seigneur Dieu, que vois-je?
3. Faust, opera: Eh! quoi! toujours seule?
4. Faust, opera: Il se fait tard
5. Faust, opera: Eternelle? O nuit d'amour
6. Faust, opera: Que voulez-vous, messieurs?
7. Faust, opera: Attends! Voici la rue
8. Germania, opera: Studenti! Udite!
9. Germania, opera: No, non chiuder gli occhi vaghi
10. Madama Butterfly (Madame Butterfly), opera: Amore o grillo
11. Madama Butterfly (Madame Butterfly), opera: Non ve l'avevo detto?
12. La Gioconda, opera in 4 acts: Cielo e mar!
13. Pagliacci, opera: No! Pagliaccio non son
14. Otello, opera: Ora e per sempre addio
15. For You Alone for voice & piano (or orchestra)
16. Cavalleria rusticana, opera (melodramma) in 1 act: O Lola
17. Il Trovatore, opera: Mal reggendo
18. Il Trovatore, opera: Se m'ami ancor, Ai nostri monti
19. Goodbye (Addio), for voice & piano or orchestra, C.S. 68
20. Aida, opera: Misero appien mi festi
Disc: 6
1. Un ballo in maschera, opera: Di' tu se fedele
2. Eternamente (For All Eternity), for voice & piano (or orchestra)
3. Lo Schiavo, opera: L'importuna insistenza; Quando nascesti tu
4. Core 'ngrato (Catari), for voice & orchestra
5. La forza del destino, opera: Invano, Alvaro
6. La forza del destino, opera: La minaccie i fieri accenti
7. L'elisir d'amore, opera: Una furtiva lagrima
8. Canta pe'me, for voice & orchestra
9. Love Is Mine for voice & orchestra
10. Manon, opera in 5 acts: Je suis seul; Ah! fuyez, douce image
11. Aida, opera: Se quel guerrier io fossi; Celeste Aida
12. Martha, opera: Siam giuinti, o giovinette
13. Martha, opera: Presto, presto andiam
14. Martha, opera: T'ho raggiunta, sciagurata!…Dormi pur; ("Goodnight Quartet)
Disc: 7
1. Le Crucifix vous qui pleurez
2. Lucia di Lammermoor, opera: Chi mi frena in tal momento?
3. Tarantella Sincera for voice & orchestra
4. Rigoletto, opera: Bella figlia dell'amore
5. Dreams of Long Ago for voice & orchestra
6. The Lost Chord, song for voice & piano
7. Parce que (Because), for voice & piano (or orchestra)
8. Hosanna for voice & orchestra
9. Manon, opera in 5 acts: Manon! On l'appelle Manon
10. Don Carlo, opera: Domanda al ciel… Dio, che nell'alma infondere
11. Il Trovatore, opera: Se m'ami ancor… Ai nostri monti
12. Pimpinella (The Florence Song), for voice & piano, Op. 38/6
13. Rigoletto, opera: Ella mi fu rapita!… Parmi veder le lagrime
14. Manon Lescaut, opera: Donna non vidi mai
15. Ave Maria for voice & piano
Disc: 8
1. Lasciate amar, song for voice & piano (or orchestra)
2. Guardann'A Luna for voice, harp & orchestra
3. Your Eyes Have Told Me What I Did Not Know, for voice & piano
4. Fenesta che lucive, song
5. Stabat mater for 2 sopranos, tenor, bass, chorus & orchestra: Culus animam
6. Les Rameaux, for voice & piano (or orchestra)
7. Cavalleria rusticana, opera (melodramma) in 1 act: Addio alla madre
8. Don Juan's Serenade, song for voice & piano, Op. 38/1
9. Amor Mio for voice & orchestra
10. Manella Mia for voice & orchestra
11. Les Rameaux, for voice & piano (or orchestra)
12. Trusting Eyes for voice & orchestra
13. Parted!, for voice & piano or orchestra, C.S. 176
14. La Partida for voice & piano/orchestra
15. El Milagro de la Virgen, zarzuela: Flores purisimas
Disc: 9
1. La Traviata, opera: Act 1. Brindisi: Libiamo, libiamo
2. Il Guarany, opera: Act 1. Sento una forza indomita
3. Hantise D'amour for voice & orchestra
4. La Mia canzone, for voice & piano/orchestra
5. Cielo Turchino for voice & orchestra
6. Requiem Mass, for soloists, chorus & orchestra (Manzoni Requiem): Ingemisco
7. Le duc d'Albe (Il duca d'Alba), opera: Act 4. Angelo casto e bel
8. Si vous l'aviez compris (L'avessi tu compresso), for voice & piano (or ensemble)
9. Luna d'estate, for voice & piano/orchestra
10. O sole mio, for voice & piano (or orchestra)
11. La reine de Saba, opera: Act 2. Faiblesse de la race humaine!…Inspirez-moi, race devine
12. Macbeth, opera: Act 4. Ah, la paterna mano
Disc: 10
1. Sancta mater, for tenor, chorus & organ
2. Tiempo Antico for voice & orchestra
3. Santa Lucia, for voice & orchestra
4. Why?, song for voice & piano, Op. 6/5
5. Chanson de juin, for voice & orchestra, Op. 102/6
6. Rigoletto, opera: Act 4: Quartet. Bella figlia dell'amore
7. Rigoletto, opera: Act 4: Quartet. Bella figlia dell'amore (alternate take of tenor opening up to mezzo entrance only)
8. Lucia di Lammermoor, opera: Act 2. Sextet. Chi mi frena in tal momento
9. Lucia di Lammermoor, opera: Act 2. Sextet. Chi mi frena in tal momento
10. Musica proibita, for voice & orchestra, Op. 5
11. Uocchie Celeste for voice & orchestra
12. L'Alba separa dalla luce l'ombra, for voice & piano (or orchestra)
13. L'Alba separa dalla luce l'ombra, for voice & piano (or orchestra)
Disc: 11
1. La Luz de la Luna, for 2 voices & orchestra
2. Sei Morta Ne la Vita Mia for voice & piano
3. La Partida for voice & piano/orchestra
4. Over There
5. A Granada for voice & orchestra
6. Campane a sera 'Ave Maria', for voice & orchestra
7. Inno di Garibaldi, for voice & orchestra
8. La Campana di San Giusto, for voice & orchestra (& chorus ad lib)
9. Sultanto a Te for voice & orchestra
10. L'elisir d'amore, opera: Act II. Venti scudi!
11. A vucchella ('Arietta di Posilippo') for voice & piano (or orchestra)
12. Vieni sul mar, song
13. Tu, ca nun chiagne!, for voice & piano (or orchestra)
14. Addio a Napoli for voice & orchestra
Disc: 12
1. Nina ('Tre giorni son che Nina'), song for voice & keyboard
2. Premiere caresse, for voice & orchestra
3. Senza nisciuno for voice & orchestra
4. Salvator Rosa, opera: Act I. Mia piccirella
5. Serenata for voice & orchestra, 'Memories of a Concert'
6. Scordame for voice & orchestra
7. Love Me or Not for voice & orchestra
8. Serse (Xerxes), opera, HWV 40: Act 1. Ombra mai fu
9. Noche Feliz for voice & orchestra
10. La Juive, opera: Act 4. Rachel, quand du Seigneur
11. I' m'arricordo 'e Napule, for voice & orchestra
12. Vaghissima sembianza, for voice & piano (or orchestra)
13. L' Africaine, grand opera in 5 acts: Act 3. Deh, ch'io ritorni
14. A Dream for voice & piano (or orchestra)
15. Petite messe solennelle, for soloists, 2 pianos, harmonium & choir: Domine Deus
16. Petite messe solennelle, for soloists, 2 pianos, harmonium & choir: Crucifixus
17. Liberty Forever
18. My Cousin Caruso
19. Germania, opera: Studentii, udite



Volume 1
Exact Audio Copy V0.99 prebeta 5 from 4. May 2009
EAC extraction logfile from 3. November 2010, 17:01
Enrico Caruso / The Complete Recordings, Volume 1
Used drive : _NEC DVD_RW ND-4570A Adapter: 0 ID: 0
Read mode : Secure
Utilize accurate stream : Yes
Defeat audio cache : Yes
Make use of C2 pointers : No
Read offset correction : 48
Overread into Lead-In and Lead-Out : No
Fill up missing offset samples with silence : Yes
Delete leading and trailing silent blocks : No
Null samples used in CRC calculations : Yes
Used interface : Installed external ASPI interface
Gap handling : Appended to previous track
Used output format : User Defined Encoder
Selected bitrate : 320 kBit/s
Quality : High
Add ID3 tag : No
Command line compressor : C:\Program Files\Exact Audio Copy\FLAC\FLAC.EXE
Additional command line options : -V -6 -T "artist=%a" -T "title=%t" -T "album=%g" -T "date=%y" -T "tracknumber=%n" -T "genre=%m" %s
TOC of the extracted CD
Track | Start | Length | Start sector | End sector
––––––––––––––––––––––––––––-
1 | 0:00.00 | 1:56.15 | 0 | 8714
2 | 1:56.15 | 2:49.32 | 8715 | 21421
3 | 4:45.47 | 2:17.53 | 21422 | 31749
4 | 7:03.25 | 3:25.12 | 31750 | 47136
5 | 10:28.37 | 2:41.13 | 47137 | 59224
6 | 13:09.50 | 3:21.50 | 59225 | 74349
7 | 16:31.25 | 2:32.02 | 74350 | 85751
8 | 19:03.27 | 3:12.40 | 85752 | 100191
9 | 22:15.67 | 2:35.62 | 100192 | 111878
10 | 24:51.54 | 2:33.66 | 111879 | 123419
11 | 27:25.45 | 2:25.30 | 123420 | 134324
12 | 29:51.00 | 1:54.62 | 134325 | 142936
13 | 31:45.62 | 2:36.18 | 142937 | 154654
14 | 34:22.05 | 2:25.65 | 154655 | 165594
15 | 36:47.70 | 2:14.27 | 165595 | 175671
16 | 39:02.22 | 2:24.68 | 175672 | 186539
17 | 41:27.15 | 2:24.30 | 186540 | 197369
18 | 43:51.45 | 2:23.64 | 197370 | 208158
19 | 46:15.34 | 2:37.16 | 208159 | 219949
20 | 48:52.50 | 2:22.22 | 219950 | 230621
21 | 51:14.72 | 3:02.65 | 230622 | 244336
22 | 54:17.62 | 3:02.33 | 244337 | 258019
23 | 57:20.20 | 3:32.25 | 258020 | 273944
24 | 60:52.45 | 2:47.10 | 273945 | 286479
25 | 63:39.55 | 3:09.12 | 286480 | 300666
26 | 66:48.67 | 2:30.55 | 300667 | 311971
27 | 69:19.47 | 2:56.65 | 311972 | 325236
Track 1
Filename Z:\home\vladimir\work\temp\Caruso\Volume 1\01. Studenti, udite (Franchetti - Germania).wav
Pre-gap length 0:00:02.00
Peak level 36.5 %
Track quality 99.9 %
Copy CRC B5F2063E
Cannot be verified as accurate (confidence 4) [C525B94E], AccurateRip returned [F96359B3]
Copy OK
Track 2
Filename Z:\home\vladimir\work\temp\Caruso\Volume 1\02. Ah, vieni qui… No, non chiuder gli occhi (Franchetti - Germania).wav
Pre-gap length 0:00:03.53
Peak level 53.0 %
Track quality 100.0 %
Copy CRC B2693A42
Cannot be verified as accurate (confidence 4) [016ECE2E], AccurateRip returned [49E636EF]
Copy OK
Track 3
Filename Z:\home\vladimir\work\temp\Caruso\Volume 1\03. Questa o quella (Verdi - Rigoletto).wav
Pre-gap length 0:00:04.13
Peak level 57.8 %
Track quality 100.0 %
Copy CRC B59A68A5
Cannot be verified as accurate (confidence 4) [EF28E3BE], AccurateRip returned [04FAAE7E]
Copy OK
Track 4
Filename Z:\home\vladimir\work\temp\Caruso\Volume 1\04. Celeste Aida (Verdi - Aida).wav
Pre-gap length 0:00:03.84
Peak level 50.6 %
Track quality 100.0 %
Copy CRC 689617DF
Cannot be verified as accurate (confidence 4) [9B88AC92], AccurateRip returned [D6C27EAB]
Copy OK
Track 5
Filename Z:\home\vladimir\work\temp\Caruso\Volume 1\05. O dolce incanto (Massenet - Mannon).wav
Pre-gap length 0:00:04.26
Peak level 46.6 %
Track quality 100.0 %
Copy CRC 4AE174F2
Cannot be verified as accurate (confidence 4) [6497050D], AccurateRip returned [1F0C0E63]
Copy OK
Track 6
Filename Z:\home\vladimir\work\temp\Caruso\Volume 1\06. Una furtiva lagrima (Donizetti - L'elisir d'amore).wav
Pre-gap length 0:00:04.20
Peak level 65.0 %
Track quality 100.0 %
Copy CRC 3E885B0A
Cannot be verified as accurate (confidence 4) [45189D58], AccurateRip returned [83CDFEB3]
Copy OK
Track 7
Filename Z:\home\vladimir\work\temp\Caruso\Volume 1\07. Dai campi, dai prati (Boito - Mefistofele).wav
Pre-gap length 0:00:04.24
Peak level 46.9 %
Track quality 100.0 %
Copy CRC 66E3B8AE
Cannot be verified as accurate (confidence 4) [CA16DF76], AccurateRip returned [89B38131]
Copy OK
Track 8
Filename Z:\home\vladimir\work\temp\Caruso\Volume 1\08. Giunto sul passo estremo (Boito - Mefistofele).wav
Pre-gap length 0:00:04.06
Peak level 77.9 %
Track quality 100.0 %
Copy CRC 766F0B1F
Cannot be verified as accurate (confidence 4) [8639ED35], AccurateRip returned [0DCEC113]
Copy OK
Track 9
Filename Z:\home\vladimir\work\temp\Caruso\Volume 1\09. E lucevan le stelle (Puccini - Tosca).wav
Pre-gap length 0:00:04.96
Peak level 75.1 %
Track quality 100.0 %
Copy CRC 8ECB75A1
Cannot be verified as accurate (confidence 4) [AE7E5267], AccurateRip returned [588FBFF3]
Copy OK
Track 10
Filename Z:\home\vladimir\work\temp\Caruso\Volume 1\10. Apri la tua finestra (Mascagni - Iris).wav
Pre-gap length 0:00:04.05
Peak level 43.9 %
Track quality 100.0 %
Copy CRC 0A9C928B
Cannot be verified as accurate (confidence 4) [0DB0CDFD], AccurateRip returned [D89ED52B]
Copy OK
Track 11
Filename Z:\home\vladimir\work\temp\Caruso\Volume 1\11. Dai campi, dai prati (Boito - Mefistofele).wav
Pre-gap length 0:00:07.80
Peak level 59.7 %
Track quality 100.0 %
Copy CRC 3B213398
Cannot be verified as accurate (confidence 4) [2452427C], AccurateRip returned [A1365F17]
Copy OK
Track 12
Filename Z:\home\vladimir\work\temp\Caruso\Volume 1\12. Amor ti vieta (Giordano - Fedora).wav
Pre-gap length 0:00:04.33
Peak level 41.1 %
Track quality 100.0 %
Copy CRC 23931009
Cannot be verified as accurate (confidence 4) [117418B9], AccurateRip returned [A7DFEC18]
Copy OK
Track 13
Filename Z:\home\vladimir\work\temp\Caruso\Volume 1\13. Celeste Aida (Verdi - Aida).wav
Pre-gap length 0:00:03.93
Peak level 63.5 %
Track quality 100.0 %
Copy CRC 23303EA4
Cannot be verified as accurate (confidence 4) [E6ED9B9C], AccurateRip returned [9ACEFEB1]
Copy OK
Track 14
Filename Z:\home\vladimir\work\temp\Caruso\Volume 1\14. Cielo e mar! (Ponchielli - La Gioconda).wav
Pre-gap length 0:00:04.00
Peak level 73.7 %
Track quality 100.0 %
Copy CRC EAEAABE0
Cannot be verified as accurate (confidence 4) [60CA2FC9], AccurateRip returned [264D9F88]
Copy OK
Track 15
Filename Z:\home\vladimir\work\temp\Caruso\Volume 1\15. Vesti la giubba (Leoncavallo - Pagliacci).wav
Pre-gap length 0:00:04.13
Peak level 92.1 %
Track quality 100.0 %
Copy CRC 0B9EDC4D
Cannot be verified as accurate (confidence 4) [CA9ECAC2], AccurateRip returned [A046980A]
Copy OK
Track 16
Filename Z:\home\vladimir\work\temp\Caruso\Volume 1\16. O Lola (Mascagni - Cavalleria rusticana).wav
Pre-gap length 0:00:03.06
Peak level 38.8 %
Track quality 100.0 %
Copy CRC 70D33108
Cannot be verified as accurate (confidence 4) [F2FD6C30], AccurateRip returned [46963142]
Copy OK
Track 17
Filename Z:\home\vladimir\work\temp\Caruso\Volume 1\17. Non t'amo piu (Denza).wav
Pre-gap length 0:00:03.53
Peak level 61.3 %
Track quality 100.0 %
Copy CRC EAD72329
Cannot be verified as accurate (confidence 4) [F4881123], AccurateRip returned [AB34C365]
Copy OK
Track 18
Filename Z:\home\vladimir\work\temp\Caruso\Volume 1\18. La mia canzone (Tosti).wav
Pre-gap length 0:00:04.57
Peak level 61.2 %
Track quality 100.0 %
Copy CRC 23DF9F7E
Cannot be verified as accurate (confidence 4) [6874DC20], AccurateRip returned [3157C160]
Copy OK
Track 19
Filename Z:\home\vladimir\work\temp\Caruso\Volume 1\19. No, piu nobile (Cilea - Adriana Lecouvreur).wav
Pre-gap length 0:00:03.72
Peak level 42.4 %
Track quality 100.0 %
Copy CRC BD623095
Cannot be verified as accurate (confidence 4) [7FEB2AF0], AccurateRip returned [8AD36589]
Copy OK
Track 20
Filename Z:\home\vladimir\work\temp\Caruso\Volume 1\20. Luna fedel (Zardo).wav
Pre-gap length 0:00:03.93
Peak level 63.5 %
Track quality 100.0 %
Copy CRC 28DCE65D
Cannot be verified as accurate (confidence 4) [88C22514], AccurateRip returned [647F42DB]
Copy OK
Track 21
Filename Z:\home\vladimir\work\temp\Caruso\Volume 1\21. Un Bacio ancora (Trimarchi).wav
Pre-gap length 0:00:05.16
Peak level 47.8 %
Track quality 100.0 %
Copy CRC 7723F260
Cannot be verified as accurate (confidence 4) [BF316617], AccurateRip returned [16F81306]
Copy OK
Track 22
Filename Z:\home\vladimir\work\temp\Caruso\Volume 1\22. Luna fedel (Zardo).wav
Pre-gap length 0:00:03.96
Peak level 40.6 %
Track quality 100.0 %
Copy CRC C9805A13
Cannot be verified as accurate (confidence 4) [926BBF23], AccurateRip returned [FA26B631]
Copy OK
Track 23
Filename Z:\home\vladimir\work\temp\Caruso\Volume 1\23. Una furtiva lagrima (Donizetti - L'elisir d'amore).wav
Pre-gap length 0:00:03.84
Peak level 52.0 %
Track quality 100.0 %
Copy CRC C31E410C
Cannot be verified as accurate (confidence 4) [0A850346], AccurateRip returned [8EBFFA7A]
Copy OK
Track 24
Filename Z:\home\vladimir\work\temp\Caruso\Volume 1\24. E lucevan le stelle (Puccini - Tosca).wav
Pre-gap length 0:00:03.53
Peak level 43.3 %
Track quality 100.0 %
Copy CRC FB513EB1
Cannot be verified as accurate (confidence 4) [7C6E778C], AccurateRip returned [6FC58863]
Copy OK
Track 25
Filename Z:\home\vladimir\work\temp\Caruso\Volume 1\25. No, non chiuder (Franchetti - Germania).wav
Pre-gap length 0:00:04.33
Peak level 46.0 %
Track quality 100.0 %
Copy CRC BC1457D7
Cannot be verified as accurate (confidence 4) [ECB7B51F], AccurateRip returned [3FCA9010]
Copy OK
Track 26
Filename Z:\home\vladimir\work\temp\Caruso\Volume 1\26. La donna e mobile (Verdi - Rigoletto).wav
Pre-gap length 0:00:03.06
Peak level 40.9 %
Track quality 99.9 %
Copy CRC 87005F24
Cannot be verified as accurate (confidence 4) [A1F38B40], AccurateRip returned [3975F977]
Copy OK
Track 27
Filename Z:\home\vladimir\work\temp\Caruso\Volume 1\27. O Lola (Mascagni - Cavalleria rusticana).wav
Pre-gap length 0:00:03.56
Peak level 59.6 %
Track quality 100.0 %
Copy CRC 12D1D07F
Cannot be verified as accurate (confidence 4) [DD0544F5], AccurateRip returned [56C7505A]
Copy OK
No tracks could be verified as accurate
You may have a different pressing from the one(s) in the database
No errors occurred
End of status report


Volume 2

Exact Audio Copy V0.99 prebeta 5 from 4. May 2009
EAC extraction logfile from 3. November 2010, 18:10
Enrico Caruso / The Complete Recordings, Volume 2
Used drive : _NEC DVD_RW ND-4570A Adapter: 0 ID: 0
Read mode : Secure
Utilize accurate stream : Yes
Defeat audio cache : Yes
Make use of C2 pointers : No
Read offset correction : 48
Overread into Lead-In and Lead-Out : No
Fill up missing offset samples with silence : Yes
Delete leading and trailing silent blocks : No
Null samples used in CRC calculations : Yes
Used interface : Installed external ASPI interface
Gap handling : Appended to previous track
Used output format : User Defined Encoder
Selected bitrate : 320 kBit/s
Quality : High
Add ID3 tag : No
Command line compressor : C:\Program Files\Exact Audio Copy\FLAC\FLAC.EXE
Additional command line options : -V -6 -T "artist=%a" -T "title=%t" -T "album=%g" -T "date=%y" -T "tracknumber=%n" -T "genre=%m" %s
TOC of the extracted CD
Track | Start | Length | Start sector | End sector
––––––––––––––––––––––––––––-
1 | 0:00.00 | 2:25.62 | 0 | 10936
2 | 2:25.62 | 2:29.60 | 10937 | 22171
3 | 4:55.47 | 2:08.40 | 22172 | 31811
4 | 7:04.12 | 2:11.00 | 31812 | 41636
5 | 9:15.12 | 2:13.30 | 41637 | 51641
6 | 11:28.42 | 5:24.45 | 51642 | 75986
7 | 16:53.12 | 3:46.60 | 75987 | 92996
8 | 20:39.72 | 2:36.65 | 92997 | 104761
9 | 23:16.62 | 2:38.60 | 104762 | 116671
10 | 25:55.47 | 2:16.35 | 116672 | 126906
11 | 28:12.07 | 2:30.18 | 126907 | 138174
12 | 30:42.25 | 2:41.65 | 138175 | 150314
13 | 33:24.15 | 2:07.10 | 150315 | 159849
14 | 35:31.25 | 3:25.30 | 159850 | 175254
15 | 38:56.55 | 3:44.25 | 175255 | 192079
16 | 42:41.05 | 3:38.52 | 192080 | 208481
17 | 46:19.57 | 3:58.15 | 208482 | 226346
18 | 50:17.72 | 3:30.40 | 226347 | 242136
19 | 53:48.37 | 2:31.30 | 242137 | 253491
20 | 56:19.67 | 3:31.13 | 253492 | 269329
21 | 59:51.05 | 4:08.07 | 269330 | 287936
22 | 63:59.12 | 4:17.73 | 287937 | 307284
23 | 68:17.10 | 1:42.07 | 307285 | 314941
24 | 69:59.17 | 3:50.58 | 314942 | 332249
Track 1
Filename Z:\home\vladimir\work\temp\Caruso\Volume 2\01. Tu non mi vuoi piu bene (Pini-Corsi).wav
Pre-gap length 0:00:02.00
Peak level 38.4 %
Track quality 100.0 %
Copy CRC 86E186BE
Cannot be verified as accurate (confidence 2) [699DB664], AccurateRip returned [52606D0C]
Copy OK
Track 2
Filename Z:\home\vladimir\work\temp\Caruso\Volume 2\02. E lucevan le stelle (Puccini - Tosca).wav
Pre-gap length 0:00:03.65
Peak level 31.6 %
Track quality 100.0 %
Copy CRC 0ED3914D
Cannot be verified as accurate (confidence 2) [0F70B76C], AccurateRip returned [92B10263]
Copy OK
Track 3
Filename Z:\home\vladimir\work\temp\Caruso\Volume 2\03. Qui sotto il ciel (Meyerbeer - Les Huguenots).wav
Pre-gap length 0:00:03.70
Peak level 38.3 %
Track quality 100.0 %
Copy CRC 99A155CA
Cannot be verified as accurate (confidence 2) [315C2222], AccurateRip returned [E41ACBCD]
Copy OK
Track 4
Filename Z:\home\vladimir\work\temp\Caruso\Volume 2\04. Questa o quella (Verdi - Rigoletto).wav
Pre-gap length 0:00:04.73
Peak level 34.9 %
Track quality 100.0 %
Copy CRC C246A29B
Cannot be verified as accurate (confidence 2) [0440083A], AccurateRip returned [94846130]
Copy OK
Track 5
Filename Z:\home\vladimir\work\temp\Caruso\Volume 2\05. La donna e mobile (Verdi - Rigoletto).wav
Pre-gap length 0:00:02.76
Peak level 34.8 %
Track quality 100.0 %
Copy CRC 3516EC4F
Cannot be verified as accurate (confidence 2) [4664D0F6], AccurateRip returned [7C1E2750]
Copy OK
Track 6
Filename Z:\home\vladimir\work\temp\Caruso\Volume 2\06. Una furtiva lagrima (Donizetti - L'Elisir d'Amore).wav
Pre-gap length 0:00:03.38
Peak level 93.3 %
Track quality 100.0 %
Copy CRC FC9A88EB
Cannot be verified as accurate (confidence 2) [E3118615], AccurateRip returned [B2E55BE5]
Copy OK
Track 7
Filename Z:\home\vladimir\work\temp\Caruso\Volume 2\07. Celeste Aida (Verdi - Aida).wav
Pre-gap length 0:00:02.52
Peak level 67.7 %
Track quality 99.9 %
Copy CRC C13306FB
Cannot be verified as accurate (confidence 2) [B3BDD93D], AccurateRip returned [752464B2]
Copy OK
Track 8
Filename Z:\home\vladimir\work\temp\Caruso\Volume 2\08. Recondita armonia (Puccini - Tosca).wav
Pre-gap length 0:00:02.97
Peak level 47.8 %
Track quality 100.0 %
Copy CRC 2A8858B3
Cannot be verified as accurate (confidence 2) [E92545D2], AccurateRip returned [1E8914ED]
Copy OK
Track 9
Filename Z:\home\vladimir\work\temp\Caruso\Volume 2\09. E lucevan le stelle (Puccini - Tosca).wav
Pre-gap length 0:00:02.53
Peak level 31.9 %
Track quality 100.0 %
Copy CRC 64265C2F
Cannot be verified as accurate (confidence 2) [675626BC], AccurateRip returned [270530A4]
Copy OK
Track 10
Filename Z:\home\vladimir\work\temp\Caruso\Volume 2\10. Siciliana (Mascagni - Cavalleria Rusticana).wav
Pre-gap length 0:00:03.02
Peak level 52.0 %
Track quality 99.9 %
Copy CRC 17DD7235
Cannot be verified as accurate (confidence 2) [982CBE34], AccurateRip returned [52647D1B]
Copy OK
Track 11
Filename Z:\home\vladimir\work\temp\Caruso\Volume 2\11. Vesti la giubba (Leoncavallo - Pagliacci).wav
Pre-gap length 0:00:03.49
Peak level 45.2 %
Track quality 100.0 %
Copy CRC 0CEC9187
Cannot be verified as accurate (confidence 2) [81CD1208], AccurateRip returned [9C58BDC1]
Copy OK
Track 12
Filename Z:\home\vladimir\work\temp\Caruso\Volume 2\12. Il Sogno- Chiudo gli occhi (Massenet - Manon).wav
Pre-gap length 0:00:02.64
Peak level 42.3 %
Track quality 100.0 %
Copy CRC 26A827E7
Cannot be verified as accurate (confidence 2) [146E90C0], AccurateRip returned [12F09925]
Copy OK
Track 13
Filename Z:\home\vladimir\work\temp\Caruso\Volume 2\13. Mattinata (Leoncavallo).wav
Pre-gap length 0:00:04.24
Peak level 52.5 %
Track quality 100.0 %
Copy CRC 88B339E9
Cannot be verified as accurate (confidence 2) [8F3BAACF], AccurateRip returned [D6E0FC1D]
Copy OK
Track 14
Filename Z:\home\vladimir\work\temp\Caruso\Volume 2\14. Mi par d'udir ancor (Bizet - I Pescatori di perle).wav
Pre-gap length 0:00:02.88
Peak level 26.5 %
Track quality 100.0 %
Copy CRC 1A1EDC07
Cannot be verified as accurate (confidence 2) [0229A9CF], AccurateRip returned [859E6A2A]
Copy OK
Track 15
Filename Z:\home\vladimir\work\temp\Caruso\Volume 2\15. Serenata- Com'e gentil (Donizetti - Don Pasquale).wav
Pre-gap length 0:00:02.86
Peak level 56.3 %
Track quality 100.0 %
Copy CRC 24D52D4B
Cannot be verified as accurate (confidence 2) [0A6D742B], AccurateRip returned [4E23C035]
Copy OK
Track 16
Filename Z:\home\vladimir\work\temp\Caruso\Volume 2\16. Il fior che avevi a me (Bizet - Carmen).wav
Pre-gap length 0:00:02.37
Peak level 37.3 %
Track quality 99.0 %
Copy CRC CBB427DB
Cannot be verified as accurate (confidence 2) [F91207EB], AccurateRip returned [E8E9D08D]
Copy OK
Track 17
Filename Z:\home\vladimir\work\temp\Caruso\Volume 2\17. Bianca al par di neve alpina (Meyerbeer - Les Huguenots).wav
Pre-gap length 0:00:02.46
Peak level 37.9 %
Track quality 100.0 %
Copy CRC 278FA80D
Cannot be verified as accurate (confidence 2) [0551F3F2], AccurateRip returned [F0C09DCB]
Copy OK
Track 18
Filename Z:\home\vladimir\work\temp\Caruso\Volume 2\18. Cielo e mar! (Ponchielli - La gioconda).wav
Pre-gap length 0:00:02.86
Peak level 43.7 %
Track quality 99.9 %
Copy CRC 73B232E7
Cannot be verified as accurate (confidence 2) [441E40FD], AccurateRip returned [4693C6CB]
Copy OK
Track 19
Filename Z:\home\vladimir\work\temp\Caruso\Volume 2\19. Brindisi (Mascagni - Cavalleria Rusticana).wav
Pre-gap length 0:00:02.93
Peak level 42.4 %
Track quality 99.9 %
Copy CRC C4611F52
Cannot be verified as accurate (confidence 2) [E88F9CB3], AccurateRip returned [ED15C919]
Copy OK
Track 20
Filename Z:\home\vladimir\work\temp\Caruso\Volume 2\20. M'appari tutt'amor (Flotow - Martha).wav
Pre-gap length 0:00:03.93
Peak level 40.6 %
Track quality 99.9 %
Copy CRC AB4286C0
Cannot be verified as accurate (confidence 2) [CD98DBE4], AccurateRip returned [65861019]
Copy OK
Track 21
Filename Z:\home\vladimir\work\temp\Caruso\Volume 2\21. Che gelida manina (Puccini - La boheme).wav
Pre-gap length 0:00:02.98
Peak level 47.9 %
Track quality 100.0 %
Copy CRC 6C47E919
Cannot be verified as accurate (confidence 2) [9CCB5314], AccurateRip returned [47553D07]
Copy OK
Track 22
Filename Z:\home\vladimir\work\temp\Caruso\Volume 2\22. Salut, demeure chaste et pure (Gounod - Faust).wav
Pre-gap length 0:00:02.86
Peak level 42.4 %
Track quality 100.0 %
Copy CRC 6384649F
Cannot be verified as accurate (confidence 2) [5C95C481], AccurateRip returned [E37E20BC]
Copy OK
Track 23
Filename Z:\home\vladimir\work\temp\Caruso\Volume 2\23. Di quella pira (Verdi - Il Trovatore).wav
Pre-gap length 0:00:03.01
Peak level 49.6 %
Track quality 100.0 %
Copy CRC E6B78220
Cannot be verified as accurate (confidence 2) [40DC5D8B], AccurateRip returned [FAB10FDA]
Copy OK
Track 24
Filename Z:\home\vladimir\work\temp\Caruso\Volume 2\24. Romanza- Spirito gentil, ne' sogni miei (Donizetti - La Favorita).wav
Pre-gap length 0:00:03.36
Peak level 38.7 %
Track quality 99.9 %
Copy CRC E12B3668
Cannot be verified as accurate (confidence 2) [7A981111], AccurateRip returned [A9D04BD1]
Copy OK
No tracks could be verified as accurate
You may have a different pressing from the one(s) in the database
No errors occurred
End of status report


Volume 3

Exact Audio Copy V0.99 prebeta 5 from 4. May 2009
EAC extraction logfile from 3. November 2010, 18:33
Enrico Caruso / The Complete Recordings, Volume 3
Used drive : _NEC DVD_RW ND-4570A Adapter: 0 ID: 0
Read mode : Secure
Utilize accurate stream : Yes
Defeat audio cache : Yes
Make use of C2 pointers : No
Read offset correction : 48
Overread into Lead-In and Lead-Out : No
Fill up missing offset samples with silence : Yes
Delete leading and trailing silent blocks : No
Null samples used in CRC calculations : Yes
Used interface : Installed external ASPI interface
Gap handling : Appended to previous track
Used output format : User Defined Encoder
Selected bitrate : 320 kBit/s
Quality : High
Add ID3 tag : No
Command line compressor : C:\Program Files\Exact Audio Copy\FLAC\FLAC.EXE
Additional command line options : -V -6 -T "artist=%a" -T "title=%t" -T "album=%g" -T "date=%y" -T "tracknumber=%n" -T "genre=%m" %s
TOC of the extracted CD
Track | Start | Length | Start sector | End sector
––––––––––––––––––––––––––––-
1 | 0:00.00 | 3:58.67 | 0 | 17916
2 | 3:58.67 | 4:17.55 | 17917 | 37246
3 | 8:16.47 | 2:31.60 | 37247 | 48631
4 | 10:48.32 | 3:22.60 | 48632 | 63841
5 | 14:11.17 | 3:39.55 | 63842 | 80321
6 | 17:50.72 | 3:55.70 | 80322 | 98016
7 | 21:46.67 | 3:47.58 | 98017 | 115099
8 | 25:34.50 | 3:16.22 | 115100 | 129821
9 | 28:50.72 | 3:04.50 | 129822 | 143671
10 | 31:55.47 | 3:25.65 | 143672 | 159111
11 | 35:21.37 | 3:22.63 | 159112 | 174324
12 | 38:44.25 | 4:21.32 | 174325 | 193931
13 | 43:05.57 | 3:24.23 | 193932 | 209254
14 | 46:30.05 | 3:50.27 | 209255 | 226531
15 | 50:20.32 | 4:00.53 | 226532 | 244584
16 | 54:21.10 | 4:03.02 | 244585 | 262811
17 | 58:24.12 | 3:39.18 | 262812 | 279254
18 | 62:03.30 | 3:32.05 | 279255 | 295159
19 | 65:35.35 | 3:44.40 | 295160 | 311999
Track 1
Filename Z:\home\vladimir\work\temp\Caruso\Volume 3\01. Celeste Aida (Verdi - Aida).wav
Pre-gap length 0:00:02.00
Peak level 100.0 %
Track quality 100.0 %
Copy CRC 08217909
Cannot be verified as accurate (confidence 2) [B3ED92AA], AccurateRip returned [F4C97711]
Copy OK
Track 2
Filename Z:\home\vladimir\work\temp\Caruso\Volume 3\02. Solenne in quest'ora (Verdi - La forza del destino).wav
Pre-gap length 0:00:03.33
Peak level 60.7 %
Track quality 100.0 %
Copy CRC 6CE70D31
Cannot be verified as accurate (confidence 2) [6EBB3F44], AccurateRip returned [2E55D1B3]
Copy OK
Track 3
Filename Z:\home\vladimir\work\temp\Caruso\Volume 3\03. Triste ritorno (Barthelemy).wav
Pre-gap length 0:00:02.40
Peak level 97.2 %
Track quality 100.0 %
Copy CRC 3AC69061
Cannot be verified as accurate (confidence 2) [A7EDAA02], AccurateRip returned [B43A7A20]
Copy OK
Track 4
Filename Z:\home\vladimir\work\temp\Caruso\Volume 3\04. Ideale (Tosti).wav
Pre-gap length 0:00:02.62
Peak level 66.3 %
Track quality 100.0 %
Copy CRC A2F18618
Cannot be verified as accurate (confidence 2) [0FB37279], AccurateRip returned [26BC2145]
Copy OK
Track 5
Filename Z:\home\vladimir\work\temp\Caruso\Volume 3\05. O paradiso (Meyerbeer - L'africana).wav
Pre-gap length 0:00:03.60
Peak level 42.5 %
Track quality 100.0 %
Copy CRC 0CC334CF
Cannot be verified as accurate (confidence 3) [D5A4910D], AccurateRip returned [FA3B131D]
Copy OK
Track 6
Filename Z:\home\vladimir\work\temp\Caruso\Volume 3\06. Bella figlia dell'amore (Verdi - Rigoletto).wav
Pre-gap length 0:00:03.33
Peak level 65.8 %
Track quality 100.0 %
Copy CRC 85035C4D
Cannot be verified as accurate (confidence 2) [B7E88516], AccurateRip returned [11DCEB7F]
Copy OK
Track 7
Filename Z:\home\vladimir\work\temp\Caruso\Volume 3\07. Un di all'azzurro spazio (Giordano - Andrea Chenier).wav
Pre-gap length 0:00:03.73
Peak level 79.4 %
Track quality 99.9 %
Copy CRC C955FF3C
Cannot be verified as accurate (confidence 3) [13E6A2E3], AccurateRip returned [5DAA37E5]
Copy OK
Track 8
Filename Z:\home\vladimir\work\temp\Caruso\Volume 3\08. Vesti la giubba (Leoncavallo - Pagliacci).wav
Pre-gap length 0:00:03.30
Peak level 75.7 %
Track quality 100.0 %
Copy CRC 06EE16C8
Cannot be verified as accurate (confidence 2) [107B9C78], AccurateRip returned [872F2E10]
Copy OK
Track 9
Filename Z:\home\vladimir\work\temp\Caruso\Volume 3\09. O Mimi, tu piu non torni (Puccini - La Boheme).wav
Pre-gap length 0:00:02.36
Peak level 77.2 %
Track quality 100.0 %
Copy CRC 21D6D528
Cannot be verified as accurate (confidence 3) [2BBE4881], AccurateRip returned [16111326]
Copy OK
Track 10
Filename Z:\home\vladimir\work\temp\Caruso\Volume 3\10. Del tempio al limita (Bizet - The Pearl Fishers).wav
Pre-gap length 0:00:03.56
Peak level 35.2 %
Track quality 99.9 %
Copy CRC BF014CFF
Cannot be verified as accurate (confidence 2) [3B1BCBD6], AccurateRip returned [5EFC1F04]
Copy OK
Track 11
Filename Z:\home\vladimir\work\temp\Caruso\Volume 3\11. O soave fanciulla (Puccini - La boheme).wav
Pre-gap length 0:00:03.46
Peak level 41.7 %
Track quality 100.0 %
Copy CRC A73F6534
Cannot be verified as accurate (confidence 3) [7128B1A4], AccurateRip returned [C4E3932C]
Copy OK
Track 12
Filename Z:\home\vladimir\work\temp\Caruso\Volume 3\12. Deserto in terra (Donizetti - Don Sebastiano).wav
Pre-gap length 0:00:03.10
Peak level 44.0 %
Track quality 100.0 %
Copy CRC 397AA03E
Cannot be verified as accurate (confidence 2) [DB124DFF], AccurateRip returned [FB5AB251]
Copy OK
Track 13
Filename Z:\home\vladimir\work\temp\Caruso\Volume 3\13. Deserto in terra (Donizetti - Don Sebastiano).wav
Pre-gap length 0:00:02.66
Peak level 43.9 %
Track quality 100.0 %
Copy CRC 220589AD
Cannot be verified as accurate (confidence 2) [4A161860], AccurateRip returned [2F50B75A]
Copy OK
Track 14
Filename Z:\home\vladimir\work\temp\Caruso\Volume 3\14. Adorables tourments (Barthelemy).wav
Pre-gap length 0:00:02.86
Peak level 51.8 %
Track quality 100.0 %
Copy CRC 7ADA1EA6
Cannot be verified as accurate (confidence 2) [32B82798], AccurateRip returned [94042B1F]
Copy OK
Track 15
Filename Z:\home\vladimir\work\temp\Caruso\Volume 3\15. Bella figlia dell'amore (Verdi - Rigoletto).wav
Pre-gap length 0:00:03.36
Peak level 60.5 %
Track quality 100.0 %
Copy CRC 0DC44A5B
Cannot be verified as accurate (confidence 2) [B4F0DB27], AccurateRip returned [C63F7819]
Copy OK
Track 16
Filename Z:\home\vladimir\work\temp\Caruso\Volume 3\16. Chi mi frena in tal momento (Donizetti - Lucia di Lammermoor).wav
Pre-gap length 0:00:02.84
Peak level 78.4 %
Track quality 100.0 %
Copy CRC FDF6B247
Cannot be verified as accurate (confidence 2) [8E51B425], AccurateRip returned [A1B77D0A]
Copy OK
Track 17
Filename Z:\home\vladimir\work\temp\Caruso\Volume 3\17. O quanti occhi fisi (Puccini - Madame Butterfly).wav
Pre-gap length 0:00:02.20
Peak level 62.3 %
Track quality 100.0 %
Copy CRC 41140DA6
Cannot be verified as accurate (confidence 3) [A7B3C911], AccurateRip returned [3AB1B27B]
Copy OK
Track 18
Filename Z:\home\vladimir\work\temp\Caruso\Volume 3\18. Ackho, dolce svegliare alla mattina (Puccini - La Boheme).wav
Pre-gap length 0:00:03.13
Peak level 55.2 %
Track quality 100.0 %
Copy CRC 3D26B017
Cannot be verified as accurate (confidence 3) [1773238B], AccurateRip returned [BF533606]
Copy OK
Track 19
Filename Z:\home\vladimir\work\temp\Caruso\Volume 3\19. Bella figlia dell'amore (Verdi - Rigoletto).wav
Pre-gap length 0:00:04.80
Peak level 71.7 %
Track quality 100.0 %
Copy CRC 820A68C1
Cannot be verified as accurate (confidence 2) [0D13E09D], AccurateRip returned [EAC56670]
Copy OK
No tracks could be verified as accurate
You may have a different pressing from the one(s) in the database
No errors occurred
End of status report


Volume 4

Exact Audio Copy V0.99 prebeta 5 from 4. May 2009
EAC extraction logfile from 3. November 2010, 19:01
Enrico Caruso / The Complete Recordings, Volume 4
Used drive : _NEC DVD_RW ND-4570A Adapter: 0 ID: 0
Read mode : Secure
Utilize accurate stream : Yes
Defeat audio cache : Yes
Make use of C2 pointers : No
Read offset correction : 48
Overread into Lead-In and Lead-Out : No
Fill up missing offset samples with silence : Yes
Delete leading and trailing silent blocks : No
Null samples used in CRC calculations : Yes
Used interface : Installed external ASPI interface
Gap handling : Appended to previous track
Used output format : User Defined Encoder
Selected bitrate : 320 kBit/s
Quality : High
Add ID3 tag : No
Command line compressor : C:\Program Files\Exact Audio Copy\FLAC\FLAC.EXE
Additional command line options : -V -6 -T "artist=%a" -T "title=%t" -T "album=%g" -T "date=%y" -T "tracknumber=%n" -T "genre=%m" %s
TOC of the extracted CD
Track | Start | Length | Start sector | End sector
––––––––––––––––––––––––––––-
1 | 0:00.00 | 2:57.47 | 0 | 13321
2 | 2:57.47 | 2:05.30 | 13322 | 22726
3 | 5:03.02 | 2:18.15 | 22727 | 33091
4 | 7:21.17 | 3:28.45 | 33092 | 48736
5 | 10:49.62 | 4:15.60 | 48737 | 67921
6 | 15:05.47 | 3:28.07 | 67922 | 83528
7 | 18:33.54 | 2:39.21 | 83529 | 95474
8 | 21:13.00 | 3:36.10 | 95475 | 111684
9 | 24:49.10 | 4:10.37 | 111685 | 130471
10 | 28:59.47 | 2:26.55 | 130472 | 141476
11 | 31:26.27 | 3:02.13 | 141477 | 155139
12 | 34:28.40 | 4:20.50 | 155140 | 174689
13 | 38:49.15 | 4:07.19 | 174690 | 193233
14 | 42:56.34 | 3:08.06 | 193234 | 207339
15 | 46:04.40 | 3:46.35 | 207340 | 224324
16 | 49:51.00 | 3:47.32 | 224325 | 241381
17 | 53:38.32 | 4:05.10 | 241382 | 259766
18 | 57:43.42 | 3:49.38 | 259767 | 276979
19 | 61:33.05 | 3:44.67 | 276980 | 293846
20 | 65:17.72 | 4:07.35 | 293847 | 312406
Track 1
Filename Z:\home\vladimir\work\temp\Caruso\Volume 4\01. Lolita (Buzzi-Peccia).wav
Pre-gap length 0:00:02.00
Peak level 44.4 %
Track quality 99.9 %
Copy CRC 221E6659
Accurately ripped (confidence 2) [2278CCFC]
Copy OK
Track 2
Filename Z:\home\vladimir\work\temp\Caruso\Volume 4\02. Questa o quella (Verdi - Rigoletto).wav
Pre-gap length 0:00:02.86
Peak level 100.0 %
Track quality 100.0 %
Copy CRC A847CBB5
Accurately ripped (confidence 2) [F3D7B3AB]
Copy OK
Track 3
Filename Z:\home\vladimir\work\temp\Caruso\Volume 4\03. La donna e mobile (Verdi - Rigoletto).wav
Pre-gap length 0:00:03.02
Peak level 70.8 %
Track quality 100.0 %
Copy CRC A8422F2D
Accurately ripped (confidence 2) [B091701C]
Copy OK
Track 4
Filename Z:\home\vladimir\work\temp\Caruso\Volume 4\04. Ah, si ben mio (Verdi - Il Trovatore).wav
Pre-gap length 0:00:04.69
Peak level 51.1 %
Track quality 100.0 %
Copy CRC 94D79F0F
Accurately ripped (confidence 2) [ACF0BF83]
Copy OK
Track 5
Filename Z:\home\vladimir\work\temp\Caruso\Volume 4\05. Ai nostri monti ritorneremo (Verdi - Il Trovatore).wav
Pre-gap length 0:00:03.40
Peak level 34.7 %
Track quality 100.0 %
Copy CRC 941488F0
Accurately ripped (confidence 2) [60A2C085]
Copy OK
Track 6
Filename Z:\home\vladimir\work\temp\Caruso\Volume 4\06. Celeste Aida (Verdi - Aida).wav
Pre-gap length 0:00:03.09
Peak level 49.2 %
Track quality 100.0 %
Copy CRC 4CA82D79
Accurately ripped (confidence 2) [7A76CAFA]
Copy OK
Track 7
Filename Z:\home\vladimir\work\temp\Caruso\Volume 4\07. Pour un Baiser (Doncieux-Tosti).wav
Pre-gap length 0:00:03.45
Peak level 58.6 %
Track quality 100.0 %
Copy CRC D7C2B623
Accurately ripped (confidence 2) [CA32440C]
Copy OK
Track 8
Filename Z:\home\vladimir\work\temp\Caruso\Volume 4\08. Mamma mia, che vo' sape (Russo-Nutile).wav
Pre-gap length 0:00:03.28
Peak level 44.1 %
Track quality 100.0 %
Copy CRC 6D90BE38
Accurately ripped (confidence 2) [F0000675]
Copy OK
Track 9
Filename Z:\home\vladimir\work\temp\Caruso\Volume 4\09. O tu che in seno agli angeli (Verdi - La Forza del destino).wav
Pre-gap length 0:00:02.90
Peak level 79.0 %
Track quality 100.0 %
Copy CRC A5346762
Accurately ripped (confidence 2) [CD6EE121]
Copy OK
Track 10
Filename Z:\home\vladimir\work\temp\Caruso\Volume 4\10. Recondita armonia (Puccini - Tosca).wav
Pre-gap length 0:00:03.40
Peak level 69.6 %
Track quality 100.0 %
Copy CRC 2B0F0CEB
Accurately ripped (confidence 2) [D48D1BA9]
Copy OK
Track 11
Filename Z:\home\vladimir\work\temp\Caruso\Volume 4\11. E lucevan le stelle (Puccini - Tosca).wav
Pre-gap length 0:00:03.53
Peak level 83.8 %
Track quality 100.0 %
Copy CRC 509D8E6C
Accurately ripped (confidence 2) [65CA0968]
Copy OK
Track 12
Filename Z:\home\vladimir\work\temp\Caruso\Volume 4\12. La fatal pietra (Verdi - Aida).wav
Pre-gap length 0:00:02.77
Peak level 52.4 %
Track quality 99.9 %
Copy CRC 9C638EA1
Accurately ripped (confidence 2) [17B9992C]
Copy OK
Track 13
Filename Z:\home\vladimir\work\temp\Caruso\Volume 4\13. O terra addio (Verdi - Aida).wav
Peak level 60.8 %
Track quality 100.0 %
Copy CRC B012E80A
Cannot be verified as accurate (confidence 3) [C90FA48F], AccurateRip returned [0966E3BF]
Copy OK
Track 14
Filename Z:\home\vladimir\work\temp\Caruso\Volume 4\14. Magiche note (Goldmark - Die Konigin von Saba).wav
Pre-gap length 0:00:03.36
Peak level 70.7 %
Track quality 100.0 %
Copy CRC 120D3622
Accurately ripped (confidence 2) [CBCD91C7]
Copy OK
Track 15
Filename Z:\home\vladimir\work\temp\Caruso\Volume 4\15. Il fior che avevi a me tu dato (Bizet - Carmen).wav
Pre-gap length 0:00:03.24
Peak level 73.1 %
Track quality 99.9 %
Copy CRC B9D7B39A
Accurately ripped (confidence 2) [DF25C6F4]
Copy OK
Track 16
Filename Z:\home\vladimir\work\temp\Caruso\Volume 4\16. La fleur que tu m'avais jetee (Bizet - Carmen).wav
Pre-gap length 0:00:02.40
Peak level 67.6 %
Track quality 100.0 %
Copy CRC B9FDE26D
Accurately ripped (confidence 2) [8F0D663C]
Copy OK
Track 17
Filename Z:\home\vladimir\work\temp\Caruso\Volume 4\17. Bianca al par di neve Alpina (Meyerbeer - Les Huguenots).wav
Pre-gap length 0:00:04.13
Peak level 65.0 %
Track quality 100.0 %
Copy CRC 960C1F32
Accurately ripped (confidence 2) [B4D4D5FC]
Copy OK
Track 18
Filename Z:\home\vladimir\work\temp\Caruso\Volume 4\18. Miserere- Ah! che la morte ognora (Verdi - Il Trovatore).wav
Pre-gap length 0:00:03.66
Peak level 56.9 %
Track quality 100.0 %
Copy CRC D20F1979
Accurately ripped (confidence 2) [8ABD1E85]
Copy OK
Track 19
Filename Z:\home\vladimir\work\temp\Caruso\Volume 4\19. Miserere- Ah! che la morte ognora (Verdi - Il Trovatore).wav
Pre-gap length 0:00:02.80
Peak level 52.1 %
Track quality 100.0 %
Copy CRC A61E2634
Accurately ripped (confidence 2) [79D44137]
Copy OK
Track 20
Filename Z:\home\vladimir\work\temp\Caruso\Volume 4\20. Solo, profugo, reietto! (Flotow - Martha).wav
Pre-gap length 0:00:03.40
Peak level 100.0 %
Track quality 100.0 %
Copy CRC 2FCECC31
Accurately ripped (confidence 2) [1363A26F]
Copy OK
19 track(s) accurately ripped
1 track(s) could not be verified as accurate
Some tracks could not be verified as accurate
No errors occurred
End of status report


Volume 5

Exact Audio Copy V0.99 prebeta 5 from 4. May 2009
EAC extraction logfile from 3. November 2010, 19:24
Enrico Caruso / The Complete Recordings, Volume 5
Used drive : _NEC DVD_RW ND-4570A Adapter: 0 ID: 0
Read mode : Secure
Utilize accurate stream : Yes
Defeat audio cache : Yes
Make use of C2 pointers : No
Read offset correction : 48
Overread into Lead-In and Lead-Out : No
Fill up missing offset samples with silence : Yes
Delete leading and trailing silent blocks : No
Null samples used in CRC calculations : Yes
Used interface : Installed external ASPI interface
Gap handling : Appended to previous track
Used output format : User Defined Encoder
Selected bitrate : 320 kBit/s
Quality : High
Add ID3 tag : No
Command line compressor : C:\Program Files\Exact Audio Copy\FLAC\FLAC.EXE
Additional command line options : -V -6 -T "artist=%a" -T "title=%t" -T "album=%g" -T "date=%y" -T "tracknumber=%n" -T "genre=%m" %s
TOC of the extracted CD
Track | Start | Length | Start sector | End sector
––––––––––––––––––––––––––––-
1 | 0:00.00 | 3:37.50 | 0 | 16324
2 | 3:37.50 | 4:31.45 | 16325 | 36694
3 | 8:09.20 | 4:02.32 | 36695 | 54876
4 | 12:11.52 | 4:05.63 | 54877 | 73314
5 | 16:17.40 | 3:43.27 | 73315 | 90066
6 | 20:00.67 | 3:29.73 | 90067 | 105814
7 | 23:30.65 | 4:04.62 | 105815 | 124176
8 | 27:35.52 | 3:11.45 | 124177 | 138546
9 | 30:47.22 | 2:49.25 | 138547 | 151246
10 | 33:36.47 | 2:34.28 | 151247 | 162824
11 | 36:11.00 | 2:50.27 | 162825 | 175601
12 | 39:01.27 | 3:31.20 | 175602 | 191446
13 | 42:32.47 | 3:49.05 | 191447 | 208626
14 | 46:21.52 | 2:52.20 | 208627 | 221546
15 | 49:13.72 | 3:16.65 | 221547 | 236311
16 | 52:30.62 | 2:20.18 | 236312 | 246829
17 | 54:51.05 | 2:15.65 | 246830 | 257019
18 | 57:06.70 | 2:43.02 | 257020 | 269246
19 | 59:49.72 | 3:39.15 | 269247 | 285686
20 | 63:29.12 | 4:26.60 | 285687 | 305696
21 | 67:55.72 | 4:25.55 | 305697 | 325626
22 | 72:21.52 | 3:37.53 | 325627 | 341954
23 | 75:59.30 | 3:28.62 | 341955 | 357616
Track 1
Filename Z:\home\vladimir\work\temp\Caruso\Volume 5\01. O merveille! (Gounod - Faust).wav
Pre-gap length 0:00:02.00
Peak level 79.4 %
Track quality 100.0 %
Copy CRC 8D1A18BD
Accurately ripped (confidence 2) [445F935E]
Copy OK
Track 2
Filename Z:\home\vladimir\work\temp\Caruso\Volume 5\02. Seigneur Dieu, que vois-je (Gounod - Faust).wav
Peak level 58.6 %
Track quality 100.0 %
Copy CRC B006717E
Accurately ripped (confidence 2) [9B4B6D8B]
Copy OK
Track 3
Filename Z:\home\vladimir\work\temp\Caruso\Volume 5\03. Eh! quoi! toujours seule (Gounod - Faust).wav
Peak level 79.4 %
Track quality 99.9 %
Copy CRC 1921324C
Accurately ripped (confidence 2) [71D2C9E7]
Copy OK
Track 4
Filename Z:\home\vladimir\work\temp\Caruso\Volume 5\04. Il se fait tard (Gounod - Faust).wav
Peak level 44.1 %
Track quality 100.0 %
Copy CRC 59444AC7
Accurately ripped (confidence 2) [D917CD56]
Copy OK
Track 5
Filename Z:\home\vladimir\work\temp\Caruso\Volume 5\05. Eternelle O nuit d'amour (Gounod - Faust).wav
Peak level 57.4 %
Track quality 100.0 %
Copy CRC 79CAF95E
Accurately ripped (confidence 2) [4A1589E6]
Copy OK
Track 6
Filename Z:\home\vladimir\work\temp\Caruso\Volume 5\06. Que voulez-vous, messieurs (Gounod - Faust).wav
Peak level 63.0 %
Track quality 100.0 %
Copy CRC 185A6AE6
Accurately ripped (confidence 2) [38AD57F7]
Copy OK
Track 7
Filename Z:\home\vladimir\work\temp\Caruso\Volume 5\07. Mon coeur est penetre d'epouvante (Gounod - Faust).wav
Peak level 46.7 %
Track quality 100.0 %
Copy CRC E2956856
Accurately ripped (confidence 2) [8C4DBE4A]
Copy OK
Track 8
Filename Z:\home\vladimir\work\temp\Caruso\Volume 5\08. Attends! Voici la rue (Gounod - Faust).wav
Peak level 46.9 %
Track quality 99.9 %
Copy CRC 787AB7C7
Accurately ripped (confidence 2) [31B3273E]
Copy OK
Track 9
Filename Z:\home\vladimir\work\temp\Caruso\Volume 5\09. Alerte! Ou vous etes perdus! (Gounod - Faust).wav
Peak level 79.4 %
Track quality 99.9 %
Copy CRC D34AFD2F
Accurately ripped (confidence 2) [39A9F4E6]
Copy OK
Track 10
Filename Z:\home\vladimir\work\temp\Caruso\Volume 5\10. Studenti! Udite! (Franchetti - Germania).wav
Pre-gap length 0:00:02.06
Peak level 79.4 %
Track quality 99.9 %
Copy CRC C2142C1C
Accurately ripped (confidence 2) [1CD52BE3]
Copy OK
Track 11
Filename Z:\home\vladimir\work\temp\Caruso\Volume 5\11. No, non chiuder gli occhi vaghi (Franchetti - Germania).wav
Pre-gap length 0:00:02.20
Peak level 70.7 %
Track quality 99.9 %
Copy CRC B4638319
Accurately ripped (confidence 2) [B95958E4]
Copy OK
Track 12
Filename Z:\home\vladimir\work\temp\Caruso\Volume 5\12. Amore o grillo (Puccini - Madame Butterfly).wav
Pre-gap length 0:00:02.25
Peak level 79.4 %
Track quality 100.0 %
Copy CRC 2C166652
Accurately ripped (confidence 2) [4E46246E]
Copy OK
Track 13
Filename Z:\home\vladimir\work\temp\Caruso\Volume 5\13. Non ve l'avevo detto (Puccini - Madame Butterfly).wav
Pre-gap length 0:00:01.89
Peak level 79.4 %
Track quality 100.0 %
Copy CRC 2B051039
Accurately ripped (confidence 2) [F8505BA0]
Copy OK
Track 14
Filename Z:\home\vladimir\work\temp\Caruso\Volume 5\14. Cielo e mar! (Ponchielli - La Gioconda).wav
Pre-gap length 0:00:01.96
Peak level 70.7 %
Track quality 100.0 %
Copy CRC 93B64A7C
Accurately ripped (confidence 2) [9A76AEB2]
Copy OK
Track 15
Filename Z:\home\vladimir\work\temp\Caruso\Volume 5\15. No! Pagliaccio non son (Leoncavallo - Pagliacci).wav
Pre-gap length 0:00:02.01
Peak level 99.9 %
Track quality 100.0 %
Copy CRC 32E2DAAE
Accurately ripped (confidence 2) [55610233]
Copy OK
Track 16
Filename Z:\home\vladimir\work\temp\Caruso\Volume 5\16. Ora e per sempre addio (Verdi - Otello).wav
Pre-gap length 0:00:02.46
Peak level 79.4 %
Track quality 100.0 %
Copy CRC C78155F0
Accurately ripped (confidence 2) [A5D03995]
Copy OK
Track 17
Filename Z:\home\vladimir\work\temp\Caruso\Volume 5\17. For You Alone (Geehl).wav
Pre-gap length 0:00:01.97
Peak level 79.4 %
Track quality 100.0 %
Copy CRC CE7FB616
Accurately ripped (confidence 2) [30634D0B]
Copy OK
Track 18
Filename Z:\home\vladimir\work\temp\Caruso\Volume 5\18. O Lola (Mascagni - Cavalleria rusticana).wav
Pre-gap length 0:00:02.24
Peak level 69.1 %
Track quality 99.9 %
Copy CRC 7C423425
Accurately ripped (confidence 2) [48EA93E0]
Copy OK
Track 19
Filename Z:\home\vladimir\work\temp\Caruso\Volume 5\19. Mal reggendo (Verdi - Il Trovatore).wav
Pre-gap length 0:00:02.53
Peak level 70.7 %
Track quality 100.0 %
Copy CRC 970433C6
Accurately ripped (confidence 2) [092ACD6E]
Copy OK
Track 20
Filename Z:\home\vladimir\work\temp\Caruso\Volume 5\20. Se m'ami ancor, Ai nostri monti (Verdi - Il Trovatore).wav
Pre-gap length 0:00:02.00
Peak level 56.2 %
Track quality 100.0 %
Copy CRC 22261E95
Accurately ripped (confidence 2) [A7F94B01]
Copy OK
Track 21
Filename Z:\home\vladimir\work\temp\Caruso\Volume 5\21. Addio (Tosti).wav
Pre-gap length 0:00:01.48
Peak level 79.4 %
Track quality 100.0 %
Copy CRC C218582D
Accurately ripped (confidence 2) [2D1A9C76]
Copy OK
Track 22
Filename Z:\home\vladimir\work\temp\Caruso\Volume 5\22. Gia i sacerdoti adunansi (Verdi - Aida).wav
Pre-gap length 0:00:01.72
Peak level 67.9 %
Track quality 100.0 %
Copy CRC 20E65DB4
Accurately ripped (confidence 2) [81B6B003]
Copy OK
Track 23
Filename Z:\home\vladimir\work\temp\Caruso\Volume 5\23. Misero appien mi festi (Verdi - Aida).wav
Peak level 79.4 %
Track quality 100.0 %
Copy CRC 2D02F4C0
Accurately ripped (confidence 2) [838F6891]
Copy OK
All tracks accurately ripped
No errors occurred
End of status report


Volume 6

Exact Audio Copy V0.99 prebeta 5 from 4. May 2009
EAC extraction logfile from 3. November 2010, 19:38
Enrico Caruso / The Complete Recordings, Volume 6
Used drive : _NEC DVD_RW ND-4570A Adapter: 0 ID: 0
Read mode : Secure
Utilize accurate stream : Yes
Defeat audio cache : Yes
Make use of C2 pointers : No
Read offset correction : 48
Overread into Lead-In and Lead-Out : No
Fill up missing offset samples with silence : Yes
Delete leading and trailing silent blocks : No
Null samples used in CRC calculations : Yes
Used interface : Installed external ASPI interface
Gap handling : Appended to previous track
Used output format : User Defined Encoder
Selected bitrate : 320 kBit/s
Quality : High
Add ID3 tag : No
Command line compressor : C:\Program Files\Exact Audio Copy\FLAC\FLAC.EXE
Additional command line options : -V -6 -T "artist=%a" -T "title=%t" -T "album=%g" -T "date=%y" -T "tracknumber=%n" -T "genre=%m" %s
TOC of the extracted CD
Track | Start | Length | Start sector | End sector
––––––––––––––––––––––––––––-
1 | 0:00.00 | 3:02.12 | 0 | 13661
2 | 3:02.12 | 4:37.15 | 13662 | 34451
3 | 7:39.27 | 3:26.43 | 34452 | 49944
4 | 11:05.70 | 3:27.40 | 49945 | 65509
5 | 14:33.35 | 4:14.70 | 65510 | 84629
6 | 18:48.30 | 4:34.45 | 84630 | 105224
7 | 23:23.00 | 3:57.60 | 105225 | 123059
8 | 27:20.60 | 4:01.32 | 123060 | 141166
9 | 31:22.17 | 4:19.65 | 141167 | 160656
10 | 35:42.07 | 3:22.05 | 160657 | 175811
11 | 39:04.12 | 2:55.63 | 175812 | 188999
12 | 42:00.00 | 4:19.40 | 189000 | 208464
13 | 46:19.40 | 4:31.65 | 208465 | 228854
14 | 50:51.30 | 4:52.12 | 228855 | 250766
15 | 55:43.42 | 3:14.15 | 250767 | 265331
16 | 58:57.57 | 3:39.03 | 265332 | 281759
17 | 62:36.60 | 3:12.25 | 281760 | 296184
18 | 65:49.10 | 4:30.65 | 296185 | 316499
Track 1
Filename Z:\home\vladimir\work\temp\Caruso\Volume 6\01. Di' tu se fedele (Verdi - Un ballo in maschera).wav
Pre-gap length 0:00:02.00
Peak level 81.3 %
Track quality 100.0 %
Copy CRC EE904970
Accurately ripped (confidence 2) [1F3B5E3E]
Copy OK
Track 2
Filename Z:\home\vladimir\work\temp\Caruso\Volume 6\02. Eternamente (Massoni-Mascheroni).wav
Pre-gap length 0:00:03.06
Peak level 90.1 %
Track quality 100.0 %
Copy CRC 32D502AF
Accurately ripped (confidence 2) [48DB32B2]
Copy OK
Track 3
Filename Z:\home\vladimir\work\temp\Caruso\Volume 6\03. Io non ho che una povera stanzetta (Leoncavallo - La Boheme).wav
Pre-gap length 0:00:01.80
Peak level 95.8 %
Track quality 100.0 %
Copy CRC 2519A683
Accurately ripped (confidence 2) [03C2A64C]
Copy OK
Track 4
Filename Z:\home\vladimir\work\temp\Caruso\Volume 6\04. Musette! O gioia della mia dimora! (Leoncavallo - La Boheme).wav
Pre-gap length 0:00:02.90
Peak level 62.6 %
Track quality 99.9 %
Copy CRC 79AD42A9
Accurately ripped (confidence 2) [CDD3E5AF]
Copy OK
Track 5
Filename Z:\home\vladimir\work\temp\Caruso\Volume 6\05. L'importuna insistenza (Gomes - Lo Schiavo).wav
Pre-gap length 0:00:02.70
Peak level 58.7 %
Track quality 100.0 %
Copy CRC 91F19FA3
Accurately ripped (confidence 2) [77AA1288]
Copy OK
Track 6
Filename Z:\home\vladimir\work\temp\Caruso\Volume 6\06. Core 'ngrato (Cordiferro-Cardillo).wav
Pre-gap length 0:00:02.68
Peak level 53.7 %
Track quality 99.9 %
Copy CRC 986FD124
Accurately ripped (confidence 2) [8B076E6D]
Copy OK
Track 7
Filename Z:\home\vladimir\work\temp\Caruso\Volume 6\07. Invano, Alvaro (Verdi - La forza del destino).wav
Pre-gap length 0:00:02.66
Peak level 62.2 %
Track quality 100.0 %
Copy CRC 3C065F0A
Accurately ripped (confidence 2) [E974828D]
Copy OK
Track 8
Filename Z:\home\vladimir\work\temp\Caruso\Volume 6\08. La minaccie i fieri accenti (Verdi - La forza del destino).wav
Peak level 88.8 %
Track quality 99.9 %
Copy CRC FB90371C
Accurately ripped (confidence 2) [CDFA545E]
Copy OK
Track 9
Filename Z:\home\vladimir\work\temp\Caruso\Volume 6\09. Una furtiva lagrima (Donizetti - L'elisir d'amore).wav
Pre-gap length 0:00:03.76
Peak level 83.4 %
Track quality 100.0 %
Copy CRC CB1EE607
Accurately ripped (confidence 2) [94E812C8]
Copy OK
Track 10
Filename Z:\home\vladimir\work\temp\Caruso\Volume 6\10. Canta pe'me (Bovio-de Curtis).wav
Pre-gap length 0:00:03.33
Peak level 59.3 %
Track quality 100.0 %
Copy CRC 19A64ED6
Accurately ripped (confidence 2) [B7D82F92]
Copy OK
Track 11
Filename Z:\home\vladimir\work\temp\Caruso\Volume 6\11. Love Is Mine (Teschemacher-Gartner).wav
Pre-gap length 0:00:03.02
Peak level 45.9 %
Track quality 100.0 %
Copy CRC 81F1CC17
Accurately ripped (confidence 2) [A2956D24]
Copy OK
Track 12
Filename Z:\home\vladimir\work\temp\Caruso\Volume 6\12. Forse la soglia attinse (Verdi - Un ballo in maschera).wav
Pre-gap length 0:00:06.54
Peak level 73.9 %
Track quality 100.0 %
Copy CRC 6FDA0113
Accurately ripped (confidence 2) [2D6B7256]
Copy OK
Track 13
Filename Z:\home\vladimir\work\temp\Caruso\Volume 6\13. Ah! fuyez, douce image (Massenet - Manon).wav
Pre-gap length 0:00:02.73
Peak level 87.0 %
Track quality 100.0 %
Copy CRC 3A586A91
Accurately ripped (confidence 2) [3531F097]
Copy OK
Track 14
Filename Z:\home\vladimir\work\temp\Caruso\Volume 6\14. Se quel guerrier io fossi; Celeste Aida (Verdi - Aida).wav
Pre-gap length 0:00:03.17
Peak level 97.7 %
Track quality 100.0 %
Copy CRC C08A9A95
Accurately ripped (confidence 2) [3F438068]
Copy OK
Track 15
Filename Z:\home\vladimir\work\temp\Caruso\Volume 6\15. Siam giuinti, o giovinette (Flotow - Martha).wav
Pre-gap length 0:00:03.46
Peak level 69.8 %
Track quality 100.0 %
Copy CRC F68A7A6E
Accurately ripped (confidence 2) [AA6BCEF5]
Copy OK
Track 16
Filename Z:\home\vladimir\work\temp\Caruso\Volume 6\16. Questo camero e per voi!…Che vuol dir cio (Flotow - Martha).wav
Peak level 62.3 %
Track quality 100.0 %
Copy CRC 27722A8F
Accurately ripped (confidence 2) [D5EA4443]
Copy OK
Track 17
Filename Z:\home\vladimir\work\temp\Caruso\Volume 6\17. Presto, presto andiam (Flotow - Martha).wav
Peak level 56.7 %
Track quality 99.9 %
Copy CRC CBBE7679
Accurately ripped (confidence 2) [2A37F834]
Copy OK
Track 18
Filename Z:\home\vladimir\work\temp\Caruso\Volume 6\18. T'ho raggiunta, sciagurata!…Dormi pur (Flotow - Martha).wav
Pre-gap length 0:00:02.90
Peak level 50.4 %
Track quality 100.0 %
Copy CRC A8A6EB73
Cannot be verified as accurate (confidence 3) [A5C55AD4], AccurateRip returned [DA098909]
Copy OK
17 track(s) accurately ripped
1 track(s) could not be verified as accurate
Some tracks could not be verified as accurate
No errors occurred
End of status report


Volume 7

Exact Audio Copy V0.99 prebeta 5 from 4. May 2009
EAC extraction logfile from 3. November 2010, 20:01
Enrico Caruso / The Complete Recordings, Volume 7
Used drive : _NEC DVD_RW ND-4570A Adapter: 0 ID: 0
Read mode : Secure
Utilize accurate stream : Yes
Defeat audio cache : Yes
Make use of C2 pointers : No
Read offset correction : 48
Overread into Lead-In and Lead-Out : No
Fill up missing offset samples with silence : Yes
Delete leading and trailing silent blocks : No
Null samples used in CRC calculations : Yes
Used interface : Installed external ASPI interface
Gap handling : Appended to previous track
Used output format : User Defined Encoder
Selected bitrate : 320 kBit/s
Quality : High
Add ID3 tag : No
Command line compressor : C:\Program Files\Exact Audio Copy\FLAC\FLAC.EXE
Additional command line options : -V -6 -T "artist=%a" -T "title=%t" -T "album=%g" -T "date=%y" -T "tracknumber=%n" -T "genre=%m" %s
TOC of the extracted CD
Track | Start | Length | Start sector | End sector
––––––––––––––––––––––––––––-
1 | 0:00.00 | 4:19.57 | 0 | 19481
2 | 4:19.57 | 3:50.08 | 19482 | 36739
3 | 8:09.65 | 4:07.67 | 36740 | 55331
4 | 12:17.57 | 3:44.28 | 55332 | 72159
5 | 16:02.10 | 3:41.70 | 72160 | 88804
6 | 19:44.05 | 3:17.70 | 88805 | 103649
7 | 23:02.00 | 4:03.62 | 103650 | 121936
8 | 27:05.62 | 4:08.13 | 121937 | 140549
9 | 31:14.00 | 2:29.37 | 140550 | 151761
10 | 33:43.37 | 4:21.35 | 151762 | 171371
11 | 38:04.72 | 4:12.50 | 171372 | 190321
12 | 42:17.47 | 3:47.38 | 190322 | 207384
13 | 46:05.10 | 3:23.12 | 207385 | 222621
14 | 49:28.22 | 4:25.63 | 222622 | 242559
15 | 53:54.10 | 2:58.72 | 242560 | 255981
16 | 56:53.07 | 4:39.65 | 255982 | 276971
17 | 61:32.72 | 3:57.45 | 276972 | 294791
18 | 65:30.42 | 2:53.30 | 294792 | 307796
19 | 68:23.72 | 4:09.13 | 307797 | 326484
20 | 72:33.10 | 4:03.65 | 326485 | 344774
Track 1
Filename Z:\home\vladimir\work\temp\Caruso\Volume 7\01. Qual volutta trascorrere (Verdi - I Lombardi).wav
Pre-gap length 0:00:02.00
Peak level 72.0 %
Track quality 100.0 %
Copy CRC 096915AF
Accurately ripped (confidence 3) [FF21AC12]
Copy OK
Track 2
Filename Z:\home\vladimir\work\temp\Caruso\Volume 7\02. Crucifix (Faure).wav
Pre-gap length 0:00:03.56
Peak level 50.9 %
Track quality 99.9 %
Copy CRC 8D16755F
Accurately ripped (confidence 3) [4FFD7A56]
Copy OK
Track 3
Filename Z:\home\vladimir\work\temp\Caruso\Volume 7\03. Chi mi frena in tal momento (Donizetti - Lucia di Lammermoor).wav
Pre-gap length 0:00:03.60
Peak level 99.9 %
Track quality 100.0 %
Copy CRC D1367FC6
Accurately ripped (confidence 3) [4A1593F1]
Copy OK
Track 4
Filename Z:\home\vladimir\work\temp\Caruso\Volume 7\04. Tarantella sincera (De Crescenzo).wav
Pre-gap length 0:00:03.56
Peak level 85.1 %
Track quality 100.0 %
Copy CRC 63875AE9
Accurately ripped (confidence 3) [F5AAC3E2]
Copy OK
Track 5
Filename Z:\home\vladimir\work\temp\Caruso\Volume 7\05. Bella figlia dell'amore (Verdi - Rigoletto).wav
Pre-gap length 0:00:03.57
Peak level 99.9 %
Track quality 100.0 %
Copy CRC 779205B0
Accurately ripped (confidence 3) [5676013B]
Copy OK
Track 6
Filename Z:\home\vladimir\work\temp\Caruso\Volume 7\06. La danza (Rossini).wav
Pre-gap length 0:00:03.57
Peak level 97.8 %
Track quality 100.0 %
Copy CRC 5336FD48
Accurately ripped (confidence 3) [3950EAF3]
Copy OK
Track 7
Filename Z:\home\vladimir\work\temp\Caruso\Volume 7\07. Dreams of long ago (Caruso).wav
Pre-gap length 0:00:03.57
Peak level 99.9 %
Track quality 100.0 %
Copy CRC 26FF4A25
Accurately ripped (confidence 3) [545C266A]
Copy OK
Track 8
Filename Z:\home\vladimir\work\temp\Caruso\Volume 7\08. The Lost Chord (Sullivan).wav
Pre-gap length 0:00:03.56
Peak level 99.9 %
Track quality 100.0 %
Copy CRC 047D5576
Accurately ripped (confidence 3) [508CEF98]
Copy OK
Track 9
Filename Z:\home\vladimir\work\temp\Caruso\Volume 7\09. Because (D'Hardelot).wav
Pre-gap length 0:00:03.57
Peak level 60.8 %
Track quality 100.0 %
Copy CRC 29EE5B7E
Accurately ripped (confidence 3) [FB995400]
Copy OK
Track 10
Filename Z:\home\vladimir\work\temp\Caruso\Volume 7\10. Hosanna (Granier).wav
Pre-gap length 0:00:03.56
Peak level 99.9 %
Track quality 100.0 %
Copy CRC 4C912C97
Accurately ripped (confidence 3) [F972E9D3]
Copy OK
Track 11
Filename Z:\home\vladimir\work\temp\Caruso\Volume 7\11. Manon! On l'appelle Manon (Massenet - Manon).wav
Pre-gap length 0:00:03.56
Peak level 64.8 %
Track quality 99.9 %
Copy CRC 90B9E13F
Accurately ripped (confidence 3) [AB44E7E5]
Copy OK
Track 12
Filename Z:\home\vladimir\work\temp\Caruso\Volume 7\12. O soave fanciulla (Puccini - La Boheme).wav
Pre-gap length 0:00:03.56
Peak level 86.6 %
Track quality 100.0 %
Copy CRC 0A0FA185
Accurately ripped (confidence 3) [C425657D]
Copy OK
Track 13
Filename Z:\home\vladimir\work\temp\Caruso\Volume 7\13. Domanda al ciel Dio (Verdi - Don Carlo).wav
Pre-gap length 0:00:03.57
Peak level 89.7 %
Track quality 100.0 %
Copy CRC FBF2E571
Accurately ripped (confidence 3) [44A6EA1D]
Copy OK
Track 14
Filename Z:\home\vladimir\work\temp\Caruso\Volume 7\14. Se m'ami ancor…Ai nostri monti (Verdi - Il trovatore).wav
Pre-gap length 0:00:03.56
Peak level 77.9 %
Track quality 100.0 %
Copy CRC 5AEA13F1
Accurately ripped (confidence 3) [0CD19DFE]
Copy OK
Track 15
Filename Z:\home\vladimir\work\temp\Caruso\Volume 7\15. Pimpinella (Tchaikovsky).wav
Pre-gap length 0:00:03.57
Peak level 83.3 %
Track quality 99.9 %
Copy CRC 49D70C4B
Accurately ripped (confidence 3) [E8602101]
Copy OK
Track 16
Filename Z:\home\vladimir\work\temp\Caruso\Volume 7\16. Ella mi fu rapita!…Parmi veder le lagrime (Verdi - Rigoletto).wav
Pre-gap length 0:00:03.54
Peak level 78.8 %
Track quality 100.0 %
Copy CRC CA2B8CB3
Accurately ripped (confidence 3) [68186875]
Copy OK
Track 17
Filename Z:\home\vladimir\work\temp\Caruso\Volume 7\17. Agnus Dei (Bizet).wav
Pre-gap length 0:00:03.56
Peak level 99.9 %
Track quality 100.0 %
Copy CRC 2085B5D1
Accurately ripped (confidence 3) [3FA6C656]
Copy OK
Track 18
Filename Z:\home\vladimir\work\temp\Caruso\Volume 7\18. Donna non vidi mai (Puccini - Manon Lescaut).wav
Pre-gap length 0:00:03.54
Peak level 81.6 %
Track quality 100.0 %
Copy CRC B2E22A1E
Accurately ripped (confidence 3) [F7EC5CCD]
Copy OK
Track 19
Filename Z:\home\vladimir\work\temp\Caruso\Volume 7\19. Ave Maria (Kahn).wav
Pre-gap length 0:00:03.56
Peak level 88.9 %
Track quality 100.0 %
Copy CRC 060B1D94
Accurately ripped (confidence 3) [B2CD0DB3]
Copy OK
Track 20
Filename Z:\home\vladimir\work\temp\Caruso\Volume 7\20. Elegie (Massenet).wav
Pre-gap length 0:00:03.57
Peak level 69.4 %
Track quality 100.0 %
Copy CRC 4F50DA3E
Accurately ripped (confidence 3) [FAC6E395]
Copy OK
All tracks accurately ripped
No errors occurred
End of status report

Volume 8

Exact Audio Copy V0.99 prebeta 5 from 4. May 2009
EAC extraction logfile from 3. November 2010, 20:26
Enrico Caruso / The Complete Recordings, Volume 8
Used drive : _NEC DVD_RW ND-4570A Adapter: 0 ID: 0
Read mode : Secure
Utilize accurate stream : Yes
Defeat audio cache : Yes
Make use of C2 pointers : No
Read offset correction : 48
Overread into Lead-In and Lead-Out : No
Fill up missing offset samples with silence : Yes
Delete leading and trailing silent blocks : No
Null samples used in CRC calculations : Yes
Used interface : Installed external ASPI interface
Gap handling : Appended to previous track
Used output format : User Defined Encoder
Selected bitrate : 320 kBit/s
Quality : High
Add ID3 tag : No
Command line compressor : C:\Program Files\Exact Audio Copy\FLAC\FLAC.EXE
Additional command line options : -V -6 -T "artist=%a" -T "title=%t" -T "album=%g" -T "date=%y" -T "tracknumber=%n" -T "genre=%m" %s
TOC of the extracted CD
Track | Start | Length | Start sector | End sector
––––––––––––––––––––––––––––-
1 | 0:00.00 | 3:03.55 | 0 | 13779
2 | 3:03.55 | 3:34.05 | 13780 | 29834
3 | 6:37.60 | 2:11.07 | 29835 | 39666
4 | 8:48.67 | 3:46.73 | 39667 | 56689
5 | 12:35.65 | 4:41.47 | 56690 | 77811
6 | 17:17.37 | 4:03.40 | 77812 | 96076
7 | 21:21.02 | 4:03.58 | 96077 | 114359
8 | 25:24.60 | 4:46.72 | 114360 | 135881
9 | 30:11.57 | 3:08.70 | 135882 | 150051
10 | 33:20.52 | 3:35.35 | 150052 | 166211
11 | 36:56.12 | 4:30.08 | 166212 | 186469
12 | 41:26.20 | 4:11.32 | 186470 | 205326
13 | 45:37.52 | 2:43.43 | 205327 | 217594
14 | 48:21.20 | 2:20.45 | 217595 | 228139
15 | 50:41.65 | 2:51.17 | 228140 | 240981
16 | 53:33.07 | 3:52.53 | 240982 | 258434
17 | 57:25.60 | 3:52.60 | 258435 | 275894
18 | 61:18.45 | 4:40.70 | 275895 | 296964
19 | 65:59.40 | 4:23.35 | 296965 | 316724
Track 1
Filename Z:\home\vladimir\work\temp\Caruso\Volume 8\01. Lasciati amar (Leoncavallo).wav
Pre-gap length 0:00:02.00
Peak level 89.9 %
Track quality 100.0 %
Copy CRC 582A793A
Accurately ripped (confidence 2) [12513D0B]
Copy OK
Track 2
Filename Z:\home\vladimir\work\temp\Caruso\Volume 8\02. Guardann'a luna (De Crescenzo).wav
Pre-gap length 0:00:03.66
Peak level 83.6 %
Track quality 100.0 %
Copy CRC 209AFB35
Accurately ripped (confidence 2) [255555F5]
Copy OK
Track 3
Filename Z:\home\vladimir\work\temp\Caruso\Volume 8\03. Your eyes have told me what I did not know (O'Hara).wav
Pre-gap length 0:00:05.44
Peak level 97.7 %
Track quality 100.0 %
Copy CRC 3DE094F9
Accurately ripped (confidence 2) [1B931BF5]
Copy OK
Track 4
Filename Z:\home\vladimir\work\temp\Caruso\Volume 8\04. Fenesta che lucive (Cottrau).wav
Pre-gap length 0:00:03.66
Peak level 78.5 %
Track quality 100.0 %
Copy CRC C9E86542
Accurately ripped (confidence 2) [85A69124]
Copy OK
Track 5
Filename Z:\home\vladimir\work\temp\Caruso\Volume 8\05. Stabat Mater - Cuius animam (Rossini).wav
Pre-gap length 0:00:04.73
Peak level 96.4 %
Track quality 100.0 %
Copy CRC 4DCDBB16
Accurately ripped (confidence 2) [7DF7DDC3]
Copy OK
Track 6
Filename Z:\home\vladimir\work\temp\Caruso\Volume 8\06. Les rameuax (Faure).wav
Pre-gap length 0:00:03.76
Peak level 95.8 %
Track quality 100.0 %
Copy CRC D75CCCF1
Accurately ripped (confidence 2) [7DF44437]
Copy OK
Track 7
Filename Z:\home\vladimir\work\temp\Caruso\Volume 8\07. Addio alla madre (Mascagni - Cavalleria rusticana).wav
Pre-gap length 0:00:03.80
Peak level 81.6 %
Track quality 100.0 %
Copy CRC 03C7C7DE
Accurately ripped (confidence 2) [EF944AC9]
Copy OK
Track 8
Filename Z:\home\vladimir\work\temp\Caruso\Volume 8\08. Oh! mostruosa colpa! Si, pel ciel (Verdi - Otello).wav
Pre-gap length 0:00:03.77
Peak level 88.8 %
Track quality 100.0 %
Copy CRC B342DBEC
Accurately ripped (confidence 2) [1926E6CB]
Copy OK
Track 9
Filename Z:\home\vladimir\work\temp\Caruso\Volume 8\09. Serenade de Don Juan (Tchaikovsky).wav
Pre-gap length 0:00:04.42
Peak level 100.0 %
Track quality 99.9 %
Copy CRC 735615BE
Accurately ripped (confidence 2) [B372EC46]
Copy OK
Track 10
Filename Z:\home\vladimir\work\temp\Caruso\Volume 8\10. Amor mio (Ricciardi).wav
Pre-gap length 0:00:03.20
Peak level 90.6 %
Track quality 100.0 %
Copy CRC F3C8E413
Accurately ripped (confidence 2) [CB516B80]
Copy OK
Track 11
Filename Z:\home\vladimir\work\temp\Caruso\Volume 8\11. Manella mia (Valente).wav
Pre-gap length 0:00:03.69
Peak level 80.9 %
Track quality 100.0 %
Copy CRC 5AC6CE8B
Accurately ripped (confidence 2) [FA946430]
Copy OK
Track 12
Filename Z:\home\vladimir\work\temp\Caruso\Volume 8\12. Les rameuax (Faure).wav
Pre-gap length 0:00:04.57
Peak level 91.4 %
Track quality 100.0 %
Copy CRC 929F65B2
Accurately ripped (confidence 2) [6E2DC686]
Copy OK
Track 13
Filename Z:\home\vladimir\work\temp\Caruso\Volume 8\13. Trusting eyes (Gartner).wav
Pre-gap length 0:00:03.33
Peak level 79.5 %
Track quality 100.0 %
Copy CRC FE1A3924
Accurately ripped (confidence 2) [B4DE140C]
Copy OK
Track 14
Filename Z:\home\vladimir\work\temp\Caruso\Volume 8\14. Serenade espagnole (Ronald).wav
Pre-gap length 0:00:03.04
Peak level 100.0 %
Track quality 100.0 %
Copy CRC 0DEC5D04
Accurately ripped (confidence 2) [90EF0065]
Copy OK
Track 15
Filename Z:\home\vladimir\work\temp\Caruso\Volume 8\15. Parted (Tosti).wav
Pre-gap length 0:00:02.80
Peak level 84.2 %
Track quality 100.0 %
Copy CRC 9A9E66B0
Accurately ripped (confidence 2) [5C4B6649]
Copy OK
Track 16
Filename Z:\home\vladimir\work\temp\Caruso\Volume 8\16. La rivedra nell'estasi (Verdi - Un ballo in maschera).wav
Pre-gap length 0:00:03.42
Peak level 85.1 %
Track quality 100.0 %
Copy CRC 3F3DB05F
Accurately ripped (confidence 2) [0FF28E5D]
Copy OK
Track 17
Filename Z:\home\vladimir\work\temp\Caruso\Volume 8\17. O scherzo od follia (Verdi - Un ballo in maschera).wav
Pre-gap length 0:00:03.00
Peak level 92.5 %
Track quality 100.0 %
Copy CRC 0AD52A89
Accurately ripped (confidence 2) [267ACE87]
Copy OK
Track 18
Filename Z:\home\vladimir\work\temp\Caruso\Volume 8\18. La Partida (Alvarez).wav
Pre-gap length 0:00:03.40
Peak level 100.0 %
Track quality 99.9 %
Copy CRC 25A62A99
Accurately ripped (confidence 2) [B3013E81]
Copy OK
Track 19
Filename Z:\home\vladimir\work\temp\Caruso\Volume 8\19. Flores purisimas (Chapi - El milagro de la Virgen).wav
Pre-gap length 0:00:04.37
Peak level 82.3 %
Track quality 100.0 %
Copy CRC 33ACFD2F
Accurately ripped (confidence 2) [41AFC747]
Copy OK
All tracks accurately ripped
No errors occurred
End of status report


Volume 9

Exact Audio Copy V0.99 prebeta 5 from 4. May 2009
EAC extraction logfile from 3. November 2010, 20:42
Enrico Caruso / The Complete Recordings, Volume 9
Used drive : _NEC DVD_RW ND-4570A Adapter: 0 ID: 0
Read mode : Secure
Utilize accurate stream : Yes
Defeat audio cache : Yes
Make use of C2 pointers : No
Read offset correction : 48
Overread into Lead-In and Lead-Out : No
Fill up missing offset samples with silence : Yes
Delete leading and trailing silent blocks : No
Null samples used in CRC calculations : Yes
Used interface : Installed external ASPI interface
Gap handling : Appended to previous track
Used output format : User Defined Encoder
Selected bitrate : 320 kBit/s
Quality : High
Add ID3 tag : No
Command line compressor : C:\Program Files\Exact Audio Copy\FLAC\FLAC.EXE
Additional command line options : -V -6 -T "artist=%a" -T "title=%t" -T "album=%g" -T "date=%y" -T "tracknumber=%n" -T "genre=%m" %s
TOC of the extracted CD
Track | Start | Length | Start sector | End sector
––––––––––––––––––––––––––––-
1 | 0:00.00 | 3:11.55 | 0 | 14379
2 | 3:11.55 | 4:34.70 | 14380 | 34999
3 | 7:46.50 | 3:04.02 | 35000 | 48801
4 | 10:50.52 | 4:49.08 | 48802 | 70484
5 | 15:39.60 | 4:51.17 | 70485 | 92326
6 | 20:31.02 | 2:42.55 | 92327 | 104531
7 | 23:13.57 | 4:30.03 | 104532 | 124784
8 | 27:43.60 | 2:39.20 | 124785 | 136729
9 | 30:23.05 | 4:21.55 | 136730 | 156359
10 | 34:44.60 | 3:50.55 | 156360 | 173664
11 | 38:35.40 | 4:28.42 | 173665 | 193806
12 | 43:04.07 | 3:03.60 | 193807 | 207591
13 | 46:07.67 | 4:28.58 | 207592 | 227749
14 | 50:36.50 | 4:12.67 | 227750 | 246716
15 | 54:49.42 | 2:16.50 | 246717 | 256966
16 | 57:06.17 | 3:26.00 | 256967 | 272416
17 | 60:32.17 | 4:30.70 | 272417 | 292736
18 | 65:03.12 | 4:15.18 | 292737 | 311879
19 | 69:18.30 | 3:25.50 | 311880 | 327304
20 | 72:44.05 | 2:08.02 | 327305 | 336906
21 | 74:52.07 | 4:16.68 | 336907 | 356174
Track 1
Filename Z:\home\vladimir\work\temp\Caruso\Volume 9\01. Brindisi- Libiamo, libiamo (Verdi - Traviata).wav
Pre-gap length 0:00:02.00
Peak level 91.1 %
Track quality 100.0 %
Copy CRC FD9247DC
Accurately ripped (confidence 4) [91981D58]
Copy OK
Track 2
Filename Z:\home\vladimir\work\temp\Caruso\Volume 9\02. Sento una forza indomita (Gomes - Il Guarany).wav
Pre-gap length 0:00:02.84
Peak level 90.9 %
Track quality 99.9 %
Copy CRC 76C0FF36
Accurately ripped (confidence 4) [39FB4EB1]
Copy OK
Track 3
Filename Z:\home\vladimir\work\temp\Caruso\Volume 9\03. Hantise D'amour (Szulc).wav
Pre-gap length 0:00:02.26
Peak level 83.0 %
Track quality 100.0 %
Copy CRC E9C1BE17
Accurately ripped (confidence 4) [2EAE22FD]
Copy OK
Track 4
Filename Z:\home\vladimir\work\temp\Caruso\Volume 9\04. Parle-moi de ma mere (Bizet - Carmen).wav
Pre-gap length 0:00:01.66
Peak level 89.8 %
Track quality 100.0 %
Copy CRC B6A394FE
Accurately ripped (confidence 4) [A8CADF38]
Copy OK
Track 5
Filename Z:\home\vladimir\work\temp\Caruso\Volume 9\05. Parle-moi de ma mere (Bizet - Carmen).wav
Pre-gap length 0:00:02.33
Peak level 59.3 %
Track quality 99.9 %
Copy CRC 3F7B3A6C
Accurately ripped (confidence 4) [AC85FB52]
Copy OK
Track 6
Filename Z:\home\vladimir\work\temp\Caruso\Volume 9\06. La Mia canzone (Tosti).wav
Pre-gap length 0:00:02.53
Peak level 83.8 %
Track quality 100.0 %
Copy CRC 528FB662
Accurately ripped (confidence 4) [1D951BA6]
Copy OK
Track 7
Filename Z:\home\vladimir\work\temp\Caruso\Volume 9\07. Pecche (Pennino).wav
Pre-gap length 0:00:02.60
Peak level 89.3 %
Track quality 100.0 %
Copy CRC E4F0540A
Accurately ripped (confidence 4) [3120E771]
Copy OK
Track 8
Filename Z:\home\vladimir\work\temp\Caruso\Volume 9\08. Cielo Turchino (Ciociano).wav
Pre-gap length 0:00:02.46
Peak level 87.9 %
Track quality 100.0 %
Copy CRC F7C19C71
Accurately ripped (confidence 4) [7DC8675B]
Copy OK
Track 9
Filename Z:\home\vladimir\work\temp\Caruso\Volume 9\09. Ingemisco (Verdi - Requiem).wav
Pre-gap length 0:00:03.60
Peak level 87.4 %
Track quality 100.0 %
Copy CRC DCCD0F7D
Accurately ripped (confidence 4) [F95CD145]
Copy OK
Track 10
Filename Z:\home\vladimir\work\temp\Caruso\Volume 9\10. Angelo casto e bel (Donizetti - Il duca d'Alba).wav
Pre-gap length 0:00:03.64
Peak level 88.3 %
Track quality 100.0 %
Copy CRC 1BAE0773
Accurately ripped (confidence 4) [C869E903]
Copy OK
Track 11
Filename Z:\home\vladimir\work\temp\Caruso\Volume 9\11. Si vous l'aviez compris (Denza).wav
Pre-gap length 0:00:02.46
Peak level 63.0 %
Track quality 100.0 %
Copy CRC DF772DC3
Accurately ripped (confidence 4) [2CF5F75A]
Copy OK
Track 12
Filename Z:\home\vladimir\work\temp\Caruso\Volume 9\12. Les duex serenades (Leoncavallo).wav
Pre-gap length 0:00:03.40
Peak level 73.2 %
Track quality 100.0 %
Copy CRC 9DCB92F7
Accurately ripped (confidence 4) [5E8E7958]
Copy OK
Track 13
Filename Z:\home\vladimir\work\temp\Caruso\Volume 9\13. La procession (Franck).wav
Pre-gap length 0:00:03.40
Peak level 95.7 %
Track quality 100.0 %
Copy CRC 054DBA40
Accurately ripped (confidence 4) [CED8B130]
Copy OK
Track 14
Filename Z:\home\vladimir\work\temp\Caruso\Volume 9\14. Ah! tout est bien fini!; O Souverain, o Juge, o Pere! (Massenet - Le Cid).wav
Pre-gap length 0:00:02.60
Peak level 91.4 %
Track quality 100.0 %
Copy CRC E75F0F77
Accurately ripped (confidence 4) [108AE38C]
Copy OK
Track 15
Filename Z:\home\vladimir\work\temp\Caruso\Volume 9\15. Luna d'estate (Tosti).wav
Pre-gap length 0:00:02.96
Peak level 88.9 %
Track quality 100.0 %
Copy CRC D23AE356
Accurately ripped (confidence 4) [533DABB7]
Copy OK
Track 16
Filename Z:\home\vladimir\work\temp\Caruso\Volume 9\16. 'O Sole Mio (di Capua).wav
Pre-gap length 0:00:02.60
Peak level 86.5 %
Track quality 100.0 %
Copy CRC 9EC8539F
Accurately ripped (confidence 4) [7DA2C5DE]
Copy OK
Track 17
Filename Z:\home\vladimir\work\temp\Caruso\Volume 9\17. Faiblesse de la race humaine!…Inspirez-moi, race devine (Gounod - La reine de Saba).wav
Pre-gap length 0:00:02.73
Peak level 89.6 %
Track quality 100.0 %
Copy CRC 712F8574
Accurately ripped (confidence 4) [676EE8D4]
Copy OK
Track 18
Filename Z:\home\vladimir\work\temp\Caruso\Volume 9\18. Mia sposa sara la mia bandiera (Rotoli).wav
Pre-gap length 0:00:02.36
Peak level 77.7 %
Track quality 100.0 %
Copy CRC AF45C7FE
Accurately ripped (confidence 4) [AE4657A7]
Copy OK
Track 19
Filename Z:\home\vladimir\work\temp\Caruso\Volume 9\19. Ah, la paterna mano (Verdi - Macbeth).wav
Pre-gap length 0:00:02.50
Peak level 89.8 %
Track quality 100.0 %
Copy CRC 49C3D46D
Accurately ripped (confidence 4) [EA2957FE]
Copy OK
Track 20
Filename Z:\home\vladimir\work\temp\Caruso\Volume 9\20. Vecchia zimarra (Puccini - La boheme).wav
Pre-gap length 0:00:02.73
Peak level 71.5 %
Track quality 100.0 %
Copy CRC DFEDB77F
Accurately ripped (confidence 4) [19DF33A0]
Copy OK
Track 21
Filename Z:\home\vladimir\work\temp\Caruso\Volume 9\21. Cantique de Noel (Adam).wav
Pre-gap length 0:00:03.06
Peak level 83.5 %
Track quality 100.0 %
Copy CRC 6F52B0CA
Accurately ripped (confidence 4) [A844FCD2]
Copy OK
All tracks accurately ripped
No errors occurred
End of status report


Volume 10

Exact Audio Copy V0.99 prebeta 5 from 4. May 2009
EAC extraction logfile from 3. November 2010, 20:58
Enrico Caruso / The Complete Recordings, Volume 10
Used drive : _NEC DVD_RW ND-4570A Adapter: 0 ID: 0
Read mode : Secure
Utilize accurate stream : Yes
Defeat audio cache : Yes
Make use of C2 pointers : No
Read offset correction : 48
Overread into Lead-In and Lead-Out : No
Fill up missing offset samples with silence : Yes
Delete leading and trailing silent blocks : No
Null samples used in CRC calculations : Yes
Used interface : Installed external ASPI interface
Gap handling : Appended to previous track
Used output format : User Defined Encoder
Selected bitrate : 320 kBit/s
Quality : High
Add ID3 tag : No
Command line compressor : C:\Program Files\Exact Audio Copy\FLAC\FLAC.EXE
Additional command line options : -V -6 -T "artist=%a" -T "title=%t" -T "album=%g" -T "date=%y" -T "tracknumber=%n" -T "genre=%m" %s
TOC of the extracted CD
Track | Start | Length | Start sector | End sector
––––––––––––––––––––––––––––-
1 | 0:00.00 | 3:38.35 | 0 | 16384
2 | 3:38.35 | 3:52.22 | 16385 | 33806
3 | 7:30.57 | 4:03.73 | 33807 | 52104
4 | 11:34.55 | 3:05.40 | 52105 | 66019
5 | 14:40.20 | 4:14.12 | 66020 | 85081
6 | 18:54.32 | 4:24.10 | 85082 | 104891
7 | 23:18.42 | 3:01.60 | 104892 | 118526
8 | 26:20.27 | 4:38.55 | 118527 | 139431
9 | 30:59.07 | 4:37.23 | 139432 | 160229
10 | 35:36.30 | 2:15.15 | 160230 | 170369
11 | 37:51.45 | 4:03.50 | 170370 | 188644
12 | 41:55.20 | 1:30.40 | 188645 | 195434
13 | 43:25.60 | 3:58.25 | 195435 | 213309
14 | 47:24.10 | 4:06.55 | 213310 | 231814
15 | 51:30.65 | 3:49.22 | 231815 | 249011
16 | 55:20.12 | 3:47.63 | 249012 | 266099
17 | 59:08.00 | 4:32.60 | 266100 | 286559
18 | 63:40.60 | 2:31.70 | 286560 | 297954
19 | 66:12.55 | 2:32.70 | 297955 | 309424
20 | 68:45.50 | 4:03.55 | 309425 | 327704
21 | 72:49.30 | 4:17.45 | 327705 | 347024
Track 1
Filename Z:\home\vladimir\work\temp\Caruso\Volume 10\01. Sancta mater (Faure).wav
Pre-gap length 0:00:02.00
Peak level 96.0 %
Track quality 99.9 %
Copy CRC 11B5418F
Accurately ripped (confidence 4) [36F6599F]
Copy OK
Track 2
Filename Z:\home\vladimir\work\temp\Caruso\Volume 10\02. Tiempo Antico (Caruso).wav
Peak level 98.9 %
Track quality 100.0 %
Copy CRC 802518FB
Accurately ripped (confidence 4) [F433D65D]
Copy OK
Track 3
Filename Z:\home\vladimir\work\temp\Caruso\Volume 10\03. Santa Lucia (Folk song arr. Cottrau).wav
Peak level 77.2 %
Track quality 100.0 %
Copy CRC 2146EB41
Accurately ripped (confidence 4) [BDCDB487]
Copy OK
Track 4
Filename Z:\home\vladimir\work\temp\Caruso\Volume 10\04. Pourquoi (Tchaikovsky).wav
Peak level 71.8 %
Track quality 100.0 %
Copy CRC A2BE9863
Accurately ripped (confidence 4) [00C4EAB4]
Copy OK
Track 5
Filename Z:\home\vladimir\work\temp\Caruso\Volume 10\05. Pour moi ce jour eset tout mystere (Tchaikovsky - Eugene Onegin).wav
Peak level 75.0 %
Track quality 100.0 %
Copy CRC 64FC4260
Accurately ripped (confidence 4) [C8ADDCD7]
Copy OK
Track 6
Filename Z:\home\vladimir\work\temp\Caruso\Volume 10\06. Chanson de Juin (Godard).wav
Peak level 60.3 %
Track quality 100.0 %
Copy CRC FE2A8802
Accurately ripped (confidence 4) [E17AACD4]
Copy OK
Track 7
Filename Z:\home\vladimir\work\temp\Caruso\Volume 10\07. Come un bel di di maggio (Giordano - Andrea Chenier).wav
Peak level 75.0 %
Track quality 100.0 %
Copy CRC 8B046020
Accurately ripped (confidence 4) [3383E8BF]
Copy OK
Track 8
Filename Z:\home\vladimir\work\temp\Caruso\Volume 10\08. Vois ma misere, helas (Saint-Saens - Samson et Dalila).wav
Peak level 75.6 %
Track quality 100.0 %
Copy CRC 4DC5BAD5
Accurately ripped (confidence 4) [14ECB75A]
Copy OK
Track 9
Filename Z:\home\vladimir\work\temp\Caruso\Volume 10\09. Je crois entendre encore (Bizet - Les Pecheurs de perles).wav
Peak level 71.9 %
Track quality 100.0 %
Copy CRC 0E4155A4
Accurately ripped (confidence 4) [74D7462B]
Copy OK
Track 10
Filename Z:\home\vladimir\work\temp\Caruso\Volume 10\10. De mon amie, fleur endormie (Bizet - Les Pecheurs de perles).wav
Peak level 60.7 %
Track quality 100.0 %
Copy CRC 01ED5883
Accurately ripped (confidence 4) [D6196430]
Copy OK
Track 11
Filename Z:\home\vladimir\work\temp\Caruso\Volume 10\11. Bella figlia dell'amore (Verdi - Rigoletto).wav
Peak level 89.7 %
Track quality 100.0 %
Copy CRC 3B22B71A
Accurately ripped (confidence 4) [0B576A71]
Copy OK
Track 12
Filename Z:\home\vladimir\work\temp\Caruso\Volume 10\12. Bella figlia dell'amore (Verdi - Rigoletto).wav
Peak level 59.7 %
Track quality 100.0 %
Copy CRC 7C848DA2
Accurately ripped (confidence 4) [E92A1F4A]
Copy OK
Track 13
Filename Z:\home\vladimir\work\temp\Caruso\Volume 10\13. Chi mi frena in tal momento (Donizetti - Lucia di Lammermoor).wav
Peak level 91.5 %
Track quality 100.0 %
Copy CRC 5A566B7B
Accurately ripped (confidence 4) [D0D1618A]
Copy OK
Track 14
Filename Z:\home\vladimir\work\temp\Caruso\Volume 10\14. Chi mi frena in tal momento (Donizetti - Lucia di Lammermoor).wav
Peak level 100.0 %
Track quality 99.9 %
Copy CRC 8530B396
Accurately ripped (confidence 4) [0F6B6634]
Copy OK
Track 15
Filename Z:\home\vladimir\work\temp\Caruso\Volume 10\15. M'appari tutt'amor (Flotow - Martha).wav
Peak level 81.0 %
Track quality 100.0 %
Copy CRC 42D65B46
Accurately ripped (confidence 4) [E1C4E346]
Copy OK
Track 16
Filename Z:\home\vladimir\work\temp\Caruso\Volume 10\16. Musica proibita (Gastaldon).wav
Peak level 81.6 %
Track quality 100.0 %
Copy CRC 3F54D1D7
Accurately ripped (confidence 4) [3CA46F29]
Copy OK
Track 17
Filename Z:\home\vladimir\work\temp\Caruso\Volume 10\17. Uocchie Celeste (de Crescenzo).wav
Pre-gap length 0:00:03.50
Peak level 71.0 %
Track quality 100.0 %
Copy CRC D910242C
Accurately ripped (confidence 4) [588F4E52]
Copy OK
Track 18
Filename Z:\home\vladimir\work\temp\Caruso\Volume 10\18. L'Alba separa dalla luce l'ombra (Tosti).wav
Peak level 45.1 %
Track quality 100.0 %
Copy CRC 195C78A2
Accurately ripped (confidence 4) [871962F7]
Copy OK
Track 19
Filename Z:\home\vladimir\work\temp\Caruso\Volume 10\19. L'Alba separa dalla luce l'ombra (Tosti).wav
Pre-gap length 0:00:02.30
Peak level 74.2 %
Track quality 100.0 %
Copy CRC D03EF48E
Accurately ripped (confidence 4) [9E572411]
Copy OK
Track 20
Filename Z:\home\vladimir\work\temp\Caruso\Volume 10\20. Ah! lumiere du jour (Rubinstein - Neron).wav
Peak level 44.5 %
Track quality 99.9 %
Copy CRC 0E62770C
Accurately ripped (confidence 4) [AC6688BE]
Copy OK
Track 21
Filename Z:\home\vladimir\work\temp\Caruso\Volume 10\21. Ah! lumiere du jour (Rubinstein - Neron).wav
Pre-gap length 0:00:02.00
Peak level 76.8 %
Track quality 100.0 %
Copy CRC F5D9CD50
Accurately ripped (confidence 4) [77FCE0BF]
Copy OK
All tracks accurately ripped
No errors occurred
End of status report


Volume 11

Exact Audio Copy V0.99 prebeta 5 from 4. May 2009
EAC extraction logfile from 3. November 2010, 21:16
Enrico Caruso / The Complete Recordings, Volume 11
Used drive : _NEC DVD_RW ND-4570A Adapter: 0 ID: 0
Read mode : Secure
Utilize accurate stream : Yes
Defeat audio cache : Yes
Make use of C2 pointers : No
Read offset correction : 48
Overread into Lead-In and Lead-Out : No
Fill up missing offset samples with silence : Yes
Delete leading and trailing silent blocks : No
Null samples used in CRC calculations : Yes
Used interface : Installed external ASPI interface
Gap handling : Appended to previous track
Used output format : User Defined Encoder
Selected bitrate : 320 kBit/s
Quality : High
Add ID3 tag : No
Command line compressor : C:\Program Files\Exact Audio Copy\FLAC\FLAC.EXE
Additional command line options : -V -6 -T "artist=%a" -T "title=%t" -T "album=%g" -T "date=%y" -T "tracknumber=%n" -T "genre=%m" %s
TOC of the extracted CD
Track | Start | Length | Start sector | End sector
––––––––––––––––––––––––––––-
1 | 0:00.00 | 4:05.52 | 0 | 18426
2 | 4:05.52 | 3:33.05 | 18427 | 34406
3 | 7:38.57 | 4:42.55 | 34407 | 55611
4 | 12:21.37 | 4:19.70 | 55612 | 75106
5 | 16:41.32 | 2:57.03 | 75107 | 88384
6 | 19:38.35 | 4:27.67 | 88385 | 108476
7 | 24:06.27 | 3:48.08 | 108477 | 125584
8 | 27:54.35 | 3:55.02 | 125585 | 143211
9 | 31:49.37 | 2:35.30 | 143212 | 154866
10 | 34:24.67 | 4:36.68 | 154867 | 175634
11 | 39:01.60 | 4:16.22 | 175635 | 194856
12 | 43:18.07 | 3:04.28 | 194857 | 208684
13 | 46:22.35 | 3:34.52 | 208685 | 224786
14 | 49:57.12 | 4:10.25 | 224787 | 243561
15 | 54:07.37 | 3:01.73 | 243562 | 257209
16 | 57:09.35 | 3:34.50 | 257210 | 273309
17 | 60:44.10 | 2:38.22 | 273310 | 285181
18 | 63:22.32 | 3:18.43 | 285182 | 300074
Track 1
Filename Z:\home\vladimir\work\temp\Caruso\Volume 11\01. A la luz de la Luna (Michelena).wav
Pre-gap length 0:00:02.00
Peak level 71.5 %
Track quality 99.9 %
Copy CRC DB4CF988
Accurately ripped (confidence 3) [6600EDAA]
Copy OK
Track 2
Filename Z:\home\vladimir\work\temp\Caruso\Volume 11\02. Sei Morta Ne la Vita Mia (Costa).wav
Pre-gap length 0:00:02.22
Peak level 85.9 %
Track quality 100.0 %
Copy CRC B3B32E29
Accurately ripped (confidence 3) [2BF38B85]
Copy OK
Track 3
Filename Z:\home\vladimir\work\temp\Caruso\Volume 11\03. La Partida (Alvarez).wav
Pre-gap length 0:00:04.06
Peak level 100.0 %
Track quality 100.0 %
Copy CRC F4A628EC
Accurately ripped (confidence 3) [71A40BE1]
Copy OK
Track 4
Filename Z:\home\vladimir\work\temp\Caruso\Volume 11\04. Ne gustare m'e dato; Sleale! Il segreto fu dunque violato (Verdi - La forza del destino).wav
Pre-gap length 0:00:01.89
Peak level 100.0 %
Track quality 100.0 %
Copy CRC 1244166F
Accurately ripped (confidence 3) [1EF5B1D1]
Copy OK
Track 5
Filename Z:\home\vladimir\work\temp\Caruso\Volume 11\05. Over There (Cohan).wav
Pre-gap length 0:00:04.89
Peak level 82.6 %
Track quality 100.0 %
Copy CRC 67B32F37
Accurately ripped (confidence 3) [439CE8D0]
Copy OK
Track 6
Filename Z:\home\vladimir\work\temp\Caruso\Volume 11\06. Pieta, Signore! (Niedermeyer).wav
Pre-gap length 0:00:04.37
Peak level 98.2 %
Track quality 100.0 %
Copy CRC 88FAF52F
Accurately ripped (confidence 3) [12709981]
Copy OK
Track 7
Filename Z:\home\vladimir\work\temp\Caruso\Volume 11\07. A Granada (Alvarez).wav
Pre-gap length 0:00:02.26
Peak level 79.2 %
Track quality 99.9 %
Copy CRC DF430534
Accurately ripped (confidence 3) [D42231DB]
Copy OK
Track 8
Filename Z:\home\vladimir\work\temp\Caruso\Volume 11\08. Campane a sera 'Ave Maria' (Billi).wav
Pre-gap length 0:00:01.97
Peak level 47.4 %
Track quality 100.0 %
Copy CRC 7B6380D8
Accurately ripped (confidence 3) [129BEC88]
Copy OK
Track 9
Filename Z:\home\vladimir\work\temp\Caruso\Volume 11\09. Inno di Garibaldi (Olivieri).wav
Pre-gap length 0:00:01.02
Peak level 84.4 %
Track quality 99.9 %
Copy CRC D044E007
Accurately ripped (confidence 3) [6EB65C50]
Copy OK
Track 10
Filename Z:\home\vladimir\work\temp\Caruso\Volume 11\10. La Campana di San Giusto (Arona).wav
Pre-gap length 0:00:02.09
Peak level 72.0 %
Track quality 100.0 %
Copy CRC 31E23AFB
Accurately ripped (confidence 3) [CB120505]
Copy OK
Track 11
Filename Z:\home\vladimir\work\temp\Caruso\Volume 11\11. Le Regiment de Sambre et Meuse (Planquette).wav
Pre-gap length 0:00:01.77
Peak level 88.7 %
Track quality 100.0 %
Copy CRC FCABA574
Accurately ripped (confidence 3) [998AAD15]
Copy OK
Track 12
Filename Z:\home\vladimir\work\temp\Caruso\Volume 11\12. Sultanto a Te (Fucito).wav
Pre-gap length 0:00:02.22
Peak level 62.2 %
Track quality 100.0 %
Copy CRC E8BDFE6A
Accurately ripped (confidence 3) [B6D74305]
Copy OK
Track 13
Filename Z:\home\vladimir\work\temp\Caruso\Volume 11\13. Je viens celebrer la victoire (Saint-Saens - Samson et Dalila).wav
Pre-gap length 0:00:01.37
Peak level 57.5 %
Track quality 100.0 %
Copy CRC 9EC9D93C
Accurately ripped (confidence 3) [FD588B9E]
Copy OK
Track 14
Filename Z:\home\vladimir\work\temp\Caruso\Volume 11\14. Venti scudi! (Donizetti - L'elisir d'amore).wav
Pre-gap length 0:00:01.62
Peak level 69.3 %
Track quality 100.0 %
Copy CRC 4CD94052
Accurately ripped (confidence 3) [F986F46F]
Copy OK
Track 15
Filename Z:\home\vladimir\work\temp\Caruso\Volume 11\15. 'A vucchella (Tosti).wav
Pre-gap length 0:00:01.89
Peak level 64.1 %
Track quality 99.9 %
Copy CRC D97C8984
Accurately ripped (confidence 3) [68DB7AC4]
Copy OK
Track 16
Filename Z:\home\vladimir\work\temp\Caruso\Volume 11\16. Vieni Sul Mar (Italian Traditional).wav
Pre-gap length 0:00:03.70
Peak level 100.0 %
Track quality 100.0 %
Copy CRC DC848801
Accurately ripped (confidence 3) [EA5AEA0C]
Copy OK
Track 17
Filename Z:\home\vladimir\work\temp\Caruso\Volume 11\17. Tu, ca nun chiagne (de Curtis).wav
Pre-gap length 0:00:02.37
Peak level 100.0 %
Track quality 100.0 %
Copy CRC 0D93AB6C
Accurately ripped (confidence 3) [21726348]
Copy OK
Track 18
Filename Z:\home\vladimir\work\temp\Caruso\Volume 11\18. Addio a Napoli (Cottrau).wav
Pre-gap length 0:00:02.00
Peak level 67.6 %
Track quality 99.9 %
Copy CRC AD46E075
Accurately ripped (confidence 3) [22F3CCC1]
Copy OK
All tracks accurately ripped
No errors occurred
End of status report


Volume 12
Exact Audio Copy V0.99 prebeta 5 from 4. May 2009
EAC extraction logfile from 24. December 2010, 20:45
Enrico Caruso / The Complete Recordings, Volume 12
Used drive : TEAC CD-W552G Adapter: 0 ID: 0
Read mode : Secure
Utilize accurate stream : Yes
Defeat audio cache : Yes
Make use of C2 pointers : No
Read offset correction : 6
Overread into Lead-In and Lead-Out : No
Fill up missing offset samples with silence : Yes
Delete leading and trailing silent blocks : No
Null samples used in CRC calculations : Yes
Used interface : Installed external ASPI interface
Gap handling : Appended to previous track
Used output format : User Defined Encoder
Selected bitrate : 768 kBit/s
Quality : High
Add ID3 tag : No
Command line compressor : C:\Program Files\Exact Audio Copy\FLAC\FLAC.EXE
Additional command line options : -6 -V -T "ARTIST=%a" -T "TITLE=%t" -T "ALBUM=%g" -T "DATE=%y" -T "TRACKNUMBER=%n" -T "GENRE=%m" -T "COMMENT=%e" %s -o %d
TOC of the extracted CD
Track | Start | Length | Start sector | End sector
––––––––––––––––––––––––––––-
1 | 0:00.00 | 2:56.62 | 0 | 13261
2 | 2:56.62 | 2:49.25 | 13262 | 25961
3 | 5:46.12 | 2:55.58 | 25962 | 39144
4 | 8:41.70 | 3:46.07 | 39145 | 56101
5 | 12:28.02 | 3:38.18 | 56102 | 72469
6 | 16:06.20 | 3:10.52 | 72470 | 86771
7 | 19:16.72 | 4:09.55 | 86772 | 105501
8 | 23:26.52 | 4:14.43 | 105502 | 124594
9 | 27:41.20 | 2:28.05 | 124595 | 135699
10 | 30:09.25 | 4:28.70 | 135700 | 155869
11 | 34:38.20 | 4:32.47 | 155870 | 176316
12 | 39:10.67 | 3:15.55 | 176317 | 190996
13 | 42:26.47 | 4:05.50 | 190997 | 209421
14 | 46:32.22 | 3:07.43 | 209422 | 223489
15 | 49:39.65 | 3:22.20 | 223490 | 238659
16 | 53:02.10 | 4:35.15 | 238660 | 259299
17 | 57:37.25 | 3:18.52 | 259300 | 274201
18 | 60:56.02 | 3:04.35 | 274202 | 288036
19 | 64:00.37 | 2:49.43 | 288037 | 300754
20 | 66:50.05 | 1:57.70 | 300755 | 309599
Track 1
Filename Z:\home\vladimir\������\Caruso\Volume 12\01. Nina (Ciampi).wav
Pre-gap length 0:00:02.00
Peak level 73.6 %
Track quality 100.0 %
Copy CRC 3A89CECF
Accurately ripped (confidence 4) [60B58861]
Copy OK
Track 2
Filename Z:\home\vladimir\������\Caruso\Volume 12\02. Premiere caresse (de Crescenzo).wav
Pre-gap length 0:00:03.32
Peak level 77.7 %
Track quality 99.9 %
Copy CRC DF12612B
Accurately ripped (confidence 4) [3AC6A97C]
Copy OK
Track 3
Filename Z:\home\vladimir\������\Caruso\Volume 12\03. Senza nisciuno (de Curtis).wav
Pre-gap length 0:00:03.05
Peak level 88.8 %
Track quality 100.0 %
Copy CRC 5394CE10
Accurately ripped (confidence 4) [FE5248AC]
Copy OK
Track 4
Filename Z:\home\vladimir\������\Caruso\Volume 12\04. Mia piccirella (Gomes - Salvator Rosa).wav
Pre-gap length 0:00:03.35
Peak level 87.1 %
Track quality 100.0 %
Copy CRC 3804420C
Accurately ripped (confidence 4) [C9A006A7]
Copy OK
Track 5
Filename Z:\home\vladimir\������\Caruso\Volume 12\05. Serenata (Bracco).wav
Pre-gap length 0:00:02.60
Peak level 93.9 %
Track quality 100.0 %
Copy CRC CE11C575
Accurately ripped (confidence 4) [A9B0C556]
Copy OK
Track 6
Filename Z:\home\vladimir\������\Caruso\Volume 12\06. Scordame (Fucito).wav
Pre-gap length 0:00:02.63
Peak level 62.6 %
Track quality 100.0 %
Copy CRC 02CC984A
Accurately ripped (confidence 4) [C283460A]
Copy OK
Track 7
Filename Z:\home\vladimir\������\Caruso\Volume 12\07. Love Me or Not (Secchi).wav
Pre-gap length 0:00:02.52
Peak level 92.3 %
Track quality 99.9 %
Copy CRC 90927085
Accurately ripped (confidence 4) [5AF54C39]
Copy OK
Track 8
Filename Z:\home\vladimir\������\Caruso\Volume 12\08. Ombra mai fu (Handel - Serse).wav
Pre-gap length 0:00:02.67
Peak level 93.0 %
Track quality 100.0 %
Copy CRC B5131ADD
Accurately ripped (confidence 4) [AC18D457]
Copy OK
Track 9
Filename Z:\home\vladimir\������\Caruso\Volume 12\09. Noche Feliz (Posadas).wav
Pre-gap length 0:00:02.68
Peak level 98.8 %
Track quality 99.9 %
Copy CRC B620E055
Accurately ripped (confidence 4) [508E87B9]
Copy OK
Track 10
Filename Z:\home\vladimir\������\Caruso\Volume 12\10. Rachel, quand du Seigneur (Halevy - La Juive).wav
Pre-gap length 0:00:03.03
Peak level 98.8 %
Track quality 100.0 %
Copy CRC E13D62C2
Accurately ripped (confidence 4) [A7C3623F]
Copy OK
Track 11
Filename Z:\home\vladimir\������\Caruso\Volume 12\11. I' M'Arricordo 'E Napule (Gioe).wav
Pre-gap length 0:00:02.45
Peak level 92.8 %
Track quality 99.9 %
Copy CRC 3B67054C
Accurately ripped (confidence 4) [48305C94]
Copy OK
Track 12
Filename Z:\home\vladimir\������\Caruso\Volume 12\12. Vaghissima sembianza (Donaudy).wav
Pre-gap length 0:00:03.05
Peak level 75.5 %
Track quality 100.0 %
Copy CRC 956F3AC6
Accurately ripped (confidence 4) [E8536CD1]
Copy OK
Track 13
Filename Z:\home\vladimir\������\Caruso\Volume 12\13. Deh, ch'io ritorni (Meyerbeer - L'Africaine).wav
Pre-gap length 0:00:03.20
Peak level 85.2 %
Track quality 100.0 %
Copy CRC 519DD1D4
Accurately ripped (confidence 4) [D7AADE3F]
Copy OK
Track 14
Filename Z:\home\vladimir\������\Caruso\Volume 12\14. Bois epais (Lully - Amadis de Gaule).wav
Pre-gap length 0:00:02.65
Peak level 93.5 %
Track quality 100.0 %
Copy CRC 68E5EF5D
Accurately ripped (confidence 4) [799CAAC0]
Copy OK
Track 15
Filename Z:\home\vladimir\������\Caruso\Volume 12\15. A Dream (Bartlett).wav
Pre-gap length 0:00:03.20
Peak level 87.5 %
Track quality 100.0 %
Copy CRC 8CE79652
Accurately ripped (confidence 4) [EE179F3C]
Copy OK
Track 16
Filename Z:\home\vladimir\������\Caruso\Volume 12\16. Domine Deus (Rossini - Petite messe solennelle).wav
Pre-gap length 0:00:02.68
Peak level 98.8 %
Track quality 100.0 %
Copy CRC 1412BB95
Accurately ripped (confidence 4) [03B7CDD2]
Copy OK
Track 17
Filename Z:\home\vladimir\������\Caruso\Volume 12\17. Crucifixus (Rossini - Petite messe solennelle).wav
Pre-gap length 0:00:03.38
Peak level 86.3 %
Track quality 100.0 %
Copy CRC 37B92635
Accurately ripped (confidence 4) [9726BD7E]
Copy OK
Track 18
Filename Z:\home\vladimir\������\Caruso\Volume 12\18. Liberty Forever (Caruso).wav
Pre-gap length 0:00:08.07
Peak level 58.1 %
Track quality 100.0 %
Copy CRC 055A843F
Accurately ripped (confidence 4) [3C95BF98]
Copy OK
Track 19
Filename Z:\home\vladimir\������\Caruso\Volume 12\19. My Cousin Caruso (Edwards).wav
Pre-gap length 0:00:03.65
Peak level 73.6 %
Track quality 100.0 %
Copy CRC A6EFCBDB
Accurately ripped (confidence 4) [0C1433E9]
Copy OK
Track 20
Filename Z:\home\vladimir\������\Caruso\Volume 12\20. Studentii, udite (Franchetti - Germania).wav
Pre-gap length 0:00:04.43
Peak level 65.6 %
Track quality 100.0 %
Copy CRC 1403FECD
Accurately ripped (confidence 4) [8AB9E63E]
Copy OK
All tracks accurately ripped
No errors occurred
End of status report



Thanks to the original ripper.

**Follow My Music Blog**