Tags
Language
Tags

Enrique Mazzola, London Pholharmonic Orchestra - Rossini: Il Barbiere di Siviglia (2017) [BDRip]

Posted By: Vilboa
Enrique Mazzola, London Pholharmonic Orchestra - Rossini: Il Barbiere di Siviglia (2017) [BDRip]

Enrique Mazzola, London Pholharmonic Orchestra - Rossini: Il Barbiere di Siviglia (2017) [BDRip]
BluRay-rip | AVC | MKV 1920x1080 / 6215 kbps / 29,97 fps | 164 min | 7,94 Gb
Audio: Italiano / AC3 / 6ch / 48.0 KHz / 640 Kbps
Classical | Opus Arte | Sub: English, French, German, Japanese, Korean

The ‘sheer visual sophistication’ of Annabel Arden’s Barbiere serves ‘a triumphant celebration of Rossini’s musical genius’, featuring de Niese’s ‘powerfully sung’ Rosina, Bürger’s ‘gale-force’ Figaro and Stayton’s ‘pure and mellifluous’ Almaviva – a leading trio ‘musically and dramatically beyond compare’ (The Independent ★★★★★). Contributing to the ‘ensemble precision’, the rest of the cast includes a ‘scene-stealing’ Berta in Kelly, a ‘suavely unctuous’ Basilio from Stamboglis and Corbelli’s Bartolo, ‘an object lesson in comic understatement’ (The Guardian). With Enrique Mazzola at the helm of the London Philharmonic Orchestra, ‘the score bubbles along on a Puckish current of merry mischief’ (The Telegraph).

Cast:
Rosina - Danielle de Niese
Dr Bartolo - Alessandro Corbelli
Figaro - Björn Bürger
Conte Almaviva - Taylor Stayton
Don Basilio - Christophoros Stamboglis
Berta - Janis Kelly
The Glyndebourne Chorus
London Philharmonic Orchestra
Conductor - Enrique Mazzola


General
Unique ID : 212916254788544649458965426604692996310 (0xA02E2DD7D1F4E003B972065061F800D6)
Complete name : C:\Il Barbiere di Siviglia.mkv
Format : Matroska
Format version : Version 2
File size : 7.95 GiB
Duration : 2h 44mn
Overall bit rate : 6 915 Kbps
Movie name : Il Barbiere di Siviglia
Encoded date : UTC 2019-07-18 13:20:36
Writing application : DVDFab 9.1.6.8
Writing library : libebml v0.7.8 + libmatroska v0.8.1

Video
ID : 1
Format : AVC
Format/Info : Advanced Video Codec
Format profile : High@L4.1
Format settings, CABAC : Yes
Format settings, ReFrames : 2 frames
Format settings, GOP : M=3, N=24
Codec ID : V_MPEG4/ISO/AVC
Duration : 2h 44mn
Bit rate : 6 215 Kbps
Width : 1 920 pixels
Height : 1 080 pixels
Display aspect ratio : 16:9
Frame rate mode : Constant
Frame rate : 29.970 fps
Color space : YUV
Chroma subsampling : 4:2:0
Bit depth : 8 bits
Scan type : Progressive
Bits/(Pixel*Frame) : 0.100
Stream size : 7.06 GiB (89%)
Writing library : x264 core 142
Encoding settings : cabac=1 / ref=1 / deblock=1:-1:-1 / analyse=0x3:0 / me=hex / subme=5 / psy=0 / mixed_ref=0 / me_range=16 / chroma_me=1 / trellis=0 / 8x8dct=1 / cqm=0 / deadzone=21,11 / fast_pskip=1 / chroma_qp_offset=0 / threads=8 / lookahead_threads=2 / sliced_threads=0 / nr=0 / decimate=1 / interlaced=0 / bluray_compat=0 / constrained_intra=0 / bframes=2 / b_pyramid=0 / b_adapt=1 / b_bias=0 / direct=1 / weightb=1 / open_gop=0 / weightp=0 / keyint=24 / keyint_min=13 / scenecut=40 / intra_refresh=0 / rc=abr / mbtree=0 / bitrate=6215 / ratetol=1.0 / qcomp=0.60 / qpmin=0 / qpmax=69 / qpstep=4 / ip_ratio=1.40 / pb_ratio=1.30 / aq=1:1.00
Default : Yes
Forced : No
Color primaries : BT.709
Transfer characteristics : BT.709
Matrix coefficients : BT.709
Color range : Limited

Audio
ID : 2
Format : AC-3
Format/Info : Audio Coding 3
Mode extension : CM (complete main)
Format settings, Endianness : Big
Codec ID : A_AC3
Duration : 2h 44mn
Bit rate mode : Constant
Bit rate : 640 Kbps
Channel(s) : 6 channels
Channel positions : Front: L C R, Side: L R, LFE
Sampling rate : 48.0 KHz
Bit depth : 16 bits
Compression mode : Lossy
Stream size : 753 MiB (9%)
Language : Italian
Default : Yes
Forced : No

Text #1
ID : 3
Format : VobSub
Codec ID : S_VOBSUB
Codec ID/Info : The same subtitle format used on DVDs
Language : English
Default : Yes
Forced : No

Text #2
ID : 4
Format : VobSub
Codec ID : S_VOBSUB
Codec ID/Info : The same subtitle format used on DVDs
Language : French
Default : No
Forced : No

Text #3
ID : 5
Format : VobSub
Codec ID : S_VOBSUB
Codec ID/Info : The same subtitle format used on DVDs
Language : German
Default : No
Forced : No

Text #4
ID : 6
Format : VobSub
Codec ID : S_VOBSUB
Codec ID/Info : The same subtitle format used on DVDs
Language : Japanese
Default : No
Forced : No

Text #5
ID : 7
Format : VobSub
Codec ID : S_VOBSUB
Codec ID/Info : The same subtitle format used on DVDs
Language : Korean
Default : No
Forced : No

Menu
00:00:00.000 : en:Chapter 01
00:08:28.508 : en:Chapter 02
00:11:43.602 : en:Chapter 03
00:19:56.628 : en:Chapter 04
00:24:39.144 : en:Chapter 05
00:31:01.426 : en:Chapter 06
00:35:01.265 : en:Chapter 07
00:43:54.431 : en:Chapter 08
00:49:50.153 : en:Chapter 09
00:54:29.699 : en:Chapter 10
01:02:15.098 : en:Chapter 11
01:08:52.161 : en:Chapter 12
01:16:36.091 : en:Chapter 13
01:19:21.056 : en:Chapter 14
01:24:50.185 : en:Chapter 15
01:31:55.910 : en:Chapter 16
01:37:17.898 : en:Chapter 17
01:40:56.717 : en:Chapter 18
01:44:12.379 : en:Chapter 19
01:52:18.865 : en:Chapter 20
01:56:39.659 : en:Chapter 21
02:02:49.795 : en:Chapter 22
02:07:32.578 : en:Chapter 23
02:08:52.558 : en:Chapter 24
02:16:10.896 : en:Chapter 25
02:23:09.981 : en:Chapter 26
02:27:08.619 : en:Chapter 27
02:31:56.207 : en:Chapter 28
02:37:13.957 : en:Chapter 29
02:39:46.743 : en:Chapter 30

Enrique Mazzola, London Pholharmonic Orchestra - Rossini: Il Barbiere di Siviglia (2017) [BDRip]