Tags
Language
Tags

Equilibrium - Waldschrein (2013) [EP]

Posted By: Andi_Deris
Equilibrium - Waldschrein (2013) [EP]

Equilibrium - Waldschrein (2013) [EP]
EAC Rip | FLAC: Image+Cue+Log | 161 Mb | MP3 CBR 320 kbps | 55 Mb | Scans | 28 Mb | Time: 20:06
Nuclear Blast Records | NB 3157-0 / 27361 31570
Epic Folk/Viking Metal, Symphonic Metal

On the eve of Heidenfest, Equilibrium has released Waldschrein, a five track EP containing a completely new song, the title track, a newly recorded version of one of their classic songs, “Der Sturm,” a previously unreleased song, a cover of the theme of a major video game, and the acoustic version of “Waldschrein.”

Equilibrium - Waldschrein (2013) [EP]




Track Listing

01. Waldschrein (05:21)
02. Der Sturm (03:36)
03. Zwergenhammer (05:42)
04. Himmelsrand (02:34)
05. Waldschrein (Instrumental) (02:53)

Produced by René Berthiaume

The Band

• Robert "Robse" Dahn - Vocals
• René Berthiaume - Guitar, Keyboards & Backing Vocals
• Andreas Völkl - Guitar
• Sandra van Eldik - Bass
• Tuval "Hati" Refaeli - Drums

Exact Audio Copy V1.3 from 2. September 2016

EAC extraction logfile from 3. July 2017, 17:36

Equilibrium / Waldschrein

Used drive : ATAPI iHAS122 W Adapter: 2 ID: 0

Read mode : Secure
Utilize accurate stream : Yes
Defeat audio cache : Yes
Make use of C2 pointers : No

Read offset correction : 48
Overread into Lead-In and Lead-Out : No
Fill up missing offset samples with silence : Yes
Delete leading and trailing silent blocks : No
Null samples used in CRC calculations : Yes
Used interface : Installed external ASPI interface

Used output format : User Defined Encoder
Selected bitrate : 1024 kBit/s
Quality : High
Add ID3 tag : No
Command line compressor : C:\Program Files\FLAC\flac.exe
Additional command line options : -V -8 -T "Date=%year%" -T "Genre=%genre%" -T"COMMENT=Ripped by Ilijan - ilko" -8 -V %source%


TOC of the extracted CD

Track | Start | Length | Start sector | End sector
––––––––––––––––––––––––––––-
1 | 0:00.00 | 5:20.51 | 0 | 24050
2 | 5:20.51 | 3:35.64 | 24051 | 40239
3 | 8:56.40 | 5:41.60 | 40240 | 65874
4 | 14:38.25 | 2:33.70 | 65875 | 77419
5 | 17:12.20 | 2:53.28 | 77420 | 90422


Range status and errors

Selected range

Filename D:\ilko\Equilibrium - Waldschrein.wav

Peak level 99.6 %
Extraction speed 3.1 X
Range quality 100.0 %
Test CRC 846C72B7
Copy CRC 846C72B7
Copy OK

No errors occurred


AccurateRip summary

Track 1 accurately ripped (confidence 10) [3F2204A4] (AR v2)
Track 2 accurately ripped (confidence 10) [DBF5BB5A] (AR v2)
Track 3 accurately ripped (confidence 10) [DA971468] (AR v2)
Track 4 accurately ripped (confidence 10) [07DAD694] (AR v2)
Track 5 accurately ripped (confidence 10) [B51A93AD] (AR v2)

All tracks accurately ripped

End of status report

–– CUETools DB Plugin V2.1.6

[CTDB TOCID: JhCIjLhnTgtdDw5qdKhjpfppSCA-] found
Submit result: JhCIjLhnTgtdDw5qdKhjpfppSCA- has been confirmed
Track | CTDB Status
1 | (47/47) Accurately ripped
2 | (47/47) Accurately ripped
3 | (47/47) Accurately ripped
4 | (47/47) Accurately ripped
5 | (47/47) Accurately ripped


==== Log checksum 2F15AF8102308CA7E6E6B011223AFE2935688933CADCC96609F04DBB5E101400 ====


Many thanks to the original uploader: Ilijan