Tags
Language
Tags

Eric Clapton - Journeyman (1989)

Posted By: v3122
Eric Clapton - Journeyman (1989)

Eric Clapton - Journeyman (1989)
EAC | Flac(Image) + Cue + Log & MP3 CBR 320Kbps
Reprise, 926 074-2 | Germany | ~ 390 or 135 Mb | Artwork(jpg) -> 44 Mb
Blues Rock / Classic Rock

For most of the '80s, Eric Clapton seemed rather lost, uncertain of whether he should return to his blues roots or pander to AOR radio. By the mid-'80s, he appeared to have made the decision to revamp himself as a glossy mainstream rocker, working with synthesizers and drum machines. Instead of expanding his audience, it only reduced it. Then came the career retrospective Crossroads, which helped revitalize his career, not only commercially, but also creatively, as Journeyman – the first album he recorded after the success of Crossroads – proved. Although Journeyman still suffers from an overly slick production, Clapton sounds more convincing than he has since the early '70s. Not only is his guitar playing muscular and forceful, his singing is soulful and gritty. Furthermore, the songwriting is consistently strong, alternating between fine mainstream rock originals ("Pretending") and covers ("Before You Accuse Me," "Hound Dog"). Like any of Clapton's best albums, there is no grandstanding to be found on Journeyman – it's simply a laid-back and thoroughly engaging display of Clapton's virtuosity. On the whole, it's the best studio album he's released since Slowhand.

by Stephen Thomas Erlewine, allmusic
Eric Clapton - Journeyman (1989):

Eric Clapton - Journeyman (1989)

Tracklist:

01. Pretending [0:04:45.30]
02. Anything For Your Love [0:04:10.66]
03. Bad Love [0:05:14.60]
04. Running On Faith [0:05:33.93]
05. Hard Times [0:03:14.09]
06. Hound Dog [0:02:27.57]
07. No Alibis [0:05:38.76]
08. Run So Far [0:04:07.73]
09. Old Love [0:06:24.44]
10. Breaking Point [0:05:32.93]
11. Lead Me On [0:05:52.06]
12. Before You Accuse Me [0:03:57.13]

Exact Audio Copy V1.0 beta 3 from 29. August 2011

Отчёт EAC об извлечении, выполненном 8. сентября 2012, 18:02

Eric Clapton / Journeyman

Дисковод: SONY CD-RW CRX230ED Adapter: 0 ID: 1

Режим чтения : Достоверность
Использование точного потока : Да
Отключение кэша аудио : Да
Использование указателей C2 : Нет

Коррекция смещения при чтении : 6
Способность читать области Lead-in и Lead-out : Нет
Заполнение пропущенных сэмплов тишиной : Да
Удаление блоков с тишиной в начале и конце : Нет
При вычислениях CRC использовались нулевые сэмплы : Да
Интерфейс : Встроенный Win32-интерфейс для Win NT/2000

Выходной формат : Внутренние WAV-операции
Формат сэмплов : 44.100 Гц; 16 бит; стерео


TOC извлечённого CD

Трек | Старт | Длительность | Начальный сектор | Конечный сектор
––––––––––––––––––––––––––––––––––-
1 | 0:00.00 | 4:45.23 | 0 | 21397
2 | 4:45.23 | 4:10.50 | 21398 | 40197
3 | 8:55.73 | 5:14.45 | 40198 | 63792
4 | 14:10.43 | 5:33.70 | 63793 | 88837
5 | 19:44.38 | 3:14.07 | 88838 | 103394
6 | 22:58.45 | 2:27.43 | 103395 | 114462
7 | 25:26.13 | 5:38.57 | 114463 | 139869
8 | 31:04.70 | 4:07.55 | 139870 | 158449
9 | 35:12.50 | 6:24.33 | 158450 | 187282
10 | 41:37.08 | 5:32.70 | 187283 | 212252
11 | 47:10.03 | 5:52.05 | 212253 | 238657
12 | 53:02.08 | 3:57.10 | 238658 | 256442


Характеристики диапазона извлечения и сообщения об ошибках

Выбранный диапазон

Имя файла E:\MusicCD\Torrent\Eric Clapton\Eric Clapton - Journeyman\Eric Clapton - Journeyman.wav

Пиковый уровень 100.0 %
Скорость извлечения 8.1 X
Качество диапазона 100.0 %
CRC теста E180C1FC
CRC копии E180C1FC
Копирование… OK

Ошибок не произошло


AccurateRip: сводка

Трек 1 : извлечено точно (доверие 44) [C50AF8D1] (AR v2)
Трек 2 : извлечено точно (доверие 45) [6D16645C] (AR v2)
Трек 3 : извлечено точно (доверие 45) [7C196729] (AR v2)
Трек 4 : извлечено точно (доверие 43) [6F430954] (AR v2)
Трек 5 : извлечено точно (доверие 44) [520B5B93] (AR v2)
Трек 6 : извлечено точно (доверие 46) [9241DDE4] (AR v2)
Трек 7 : извлечено точно (доверие 45) [26660C50] (AR v2)
Трек 8 : извлечено точно (доверие 45) [81D302FC] (AR v2)
Трек 9 : извлечено точно (доверие 46) [F38F9BC2] (AR v2)
Трек 10 : извлечено точно (доверие 46) [743B49B3] (AR v2)
Трек 11 точность не определена (достоверность 195) [C087F5B2], AccurateRip вернул [259FC1C2] (AR v2)
Трек 12 : извлечено точно (доверие 45) [5B024723] (AR v2)

11 трек(и) скопированы точно
1 трек(и) не удалось проверить на точность

Некоторые треки не прошли проверку на точность

Конец отчёта

==== Контрольная сумма отчёта 4015D9C3A62D45A2392C4603B4C457A6C750147CA11427C102CC349437C4460C ====


[CUETools log; Date: 13.07.2021 13:04:50; Version: 2.1.4]
[AccurateRip ID: 0018cbd2-00e87652-b10d5b0c] found.
Track [ CRC | V2 ] Status
01 [128ad069|c50af8d1] (200+200/621) Accurately ripped
02 [833011e4|6d16645c] (200+200/621) Accurately ripped
03 [c7892062|7c196729] (200+200/620) Accurately ripped
04 [8c798035|6f430954] (200+200/618) Accurately ripped
05 [bd00abaa|520b5b93] (200+200/619) Accurately ripped
06 [b2c7c541|9241dde4] (200+200/622) Accurately ripped
07 [8f5b91c0|26660c50] (200+200/619) Accurately ripped
08 [bc4222c8|81d302fc] (200+200/620) Accurately ripped
09 [e360e0ab|f38f9bc2] (200+200/620) Accurately ripped
10 [787a1412|743b49b3] (200+200/616) Accurately ripped
11 [bf266527|c087f5b2] (000+000/866) No match
12 [ec73774c|5b024723] (200+200/651) Accurately ripped
Offsetted by -1389:
01 [2893b2ed] (000/621) No match (V2 was not tested)
02 [52e5c7e2] (000/621) No match (V2 was not tested)
03 [ef1ff69d] (000/620) No match (V2 was not tested)
04 [b338a0af] (000/618) No match (V2 was not tested)
05 [f01fa5b2] (000/619) No match (V2 was not tested)
06 [d0ada157] (000/622) No match (V2 was not tested)
07 [e70c28e6] (000/619) No match (V2 was not tested)
08 [4b62efac] (000/620) No match (V2 was not tested)
09 [6c33b38e] (000/620) No match (V2 was not tested)
10 [0b61a9bc] (000/616) No match (V2 was not tested)
11 [cd507aa7] (000/866) No match (V2 was not tested)
12 [da57f0c1] (000/651) No match
Offsetted by -1370:
01 [b634dbe0] (003/621) Accurately ripped
02 [6c9e08a8] (003/621) Accurately ripped
03 [9779b77a] (003/620) Accurately ripped
04 [be6f91cd] (003/618) Accurately ripped
05 [096b0182] (003/619) Accurately ripped
06 [de0f6b9f] (003/622) Accurately ripped
07 [856b26cb] (002/619) Accurately ripped
08 [cca33fc6] (003/620) Accurately ripped
09 [85f4f307] (003/620) Accurately ripped
10 [9cc7aec2] (003/616) Accurately ripped
11 [db90d86b] (000/866) No match (V2 was not tested)
12 [f774a65f] (000/651) No match
Offsetted by -1368:
01 [eaef9013] (000/621) No match (V2 was not tested)
02 [33463e9d] (000/621) No match
03 [a947ba2c] (000/620) No match (V2 was not tested)
04 [c70ed7b1] (000/618) No match
05 [2d730a92] (000/619) No match
06 [c9ce8924] (000/622) No match
07 [ef4f5c2a] (000/619) No match
08 [f96fa896] (000/620) No match
09 [25ff1e2e] (000/620) No match (V2 was not tested)
10 [8b4d9510] (000/616) No match
11 [36858fd9] (000/866) No match
12 [174b74a7] (000/651) No match
Offsetted by -1359:
01 [437cfe8a] (000/621) No match
02 [d983e403] (000/621) No match
03 [0a777330] (000/620) No match
04 [3578f2a3] (000/618) No match
05 [95ca7636] (000/619) No match
06 [dfa59e33] (000/622) No match
07 [1275b214] (000/619) No match
08 [769c2ce5] (000/620) No match
09 [2fe49d24] (000/620) No match
10 [b125f0cd] (000/616) No match
11 [8b686d6c] (000/866) No match
12 [932e1492] (000/651) No match (V2 was not tested)
Offsetted by -1353:
01 [cf62f536] (012/621) Accurately ripped
02 [afbbacfc] (012/621) Accurately ripped
03 [977ac59f] (012/620) Accurately ripped
04 [c094baf7] (012/618) Accurately ripped
05 [fe68ea83] (012/619) Accurately ripped
06 [54f8f681] (012/622) Accurately ripped
07 [aa88da01] (012/619) Accurately ripped
08 [54349d96] (012/620) Accurately ripped
09 [5dc882b2] (012/620) Accurately ripped
10 [86a389f8] (012/616) Accurately ripped
11 [6ebf37ce] (000/866) No match (V2 was not tested)
12 [6c147ef3] (000/651) No match
Offsetted by -1340:
01 [71e8de41] (000/621) No match
02 [6c12419f] (000/621) No match
03 [33022b90] (000/620) No match
04 [2b2930f0] (000/618) No match
05 [df1db54b] (000/619) No match
06 [a71be128] (000/622) No match
07 [d4a8c8c7] (000/619) No match
08 [df9156fa] (000/620) No match
09 [39944446] (000/620) No match
10 [a4cca3f5] (000/616) No match
11 [eca96d8e] (000/866) No match
12 [a06bba07] (003/651) Accurately ripped
Offsetted by -1338:
01 [9b238bc7] (000/621) No match
02 [1d1ff641] (000/621) No match
03 [fe483058] (000/620) No match
04 [eae5e2a6] (000/618) No match
05 [ca08eabb] (000/619) No match
06 [aa249a04] (000/622) No match
07 [74cf14f8] (000/619) No match
08 [7617da86] (000/620) No match
09 [d7b46fd9] (000/620) No match
10 [9f028b21] (000/616) No match
11 [8c71251a] (000/866) No match
12 [b33687f2] (000/651) No match (V2 was not tested)
Offsetted by -1323:
01 [90aa31b3] (000/621) No match
02 [23d1a8d1] (000/621) No match
03 [25fe9fe9] (000/620) No match
04 [882bef3c] (000/618) No match
05 [9dfbe86d] (000/619) No match
06 [cf601b7e] (000/622) No match
07 [7633e3cf] (000/619) No match
08 [04be5f2f] (000/620) No match
09 [af3fc259] (000/620) No match
10 [cfd16b9d] (000/616) No match
11 [51f89fb5] (000/866) No match
12 [8c910934] (012/651) Accurately ripped
Offsetted by -787:
01 [e79bba98] (002/621) Accurately ripped
02 [45f363c7] (002/621) Accurately ripped
03 [435d9abc] (002/620) Accurately ripped
04 [a3713131] (002/618) Accurately ripped
05 [396254c7] (002/619) Accurately ripped
06 [5f1d2adb] (002/622) Accurately ripped
07 [db0c42d5] (002/619) Accurately ripped
08 [6f9540e2] (002/620) Accurately ripped
09 [76a79c02] (002/620) Accurately ripped
10 [8ee084dc] (002/616) Accurately ripped
11 [a166fcdf] (000/866) No match (V2 was not tested)
12 [98f7c58f] (000/651) No match
Offsetted by -757:
01 [8fa8ea1b] (000/621) No match
02 [9d38c51e] (000/621) No match
03 [9e17e381] (000/620) No match
04 [c2037933] (000/618) No match
05 [e4404c39] (000/619) No match
06 [47596204] (000/622) No match
07 [d81abee5] (000/619) No match
08 [e6522e66] (000/620) No match
09 [a97c088c] (000/620) No match
10 [317c863b] (000/616) No match
11 [7bc53166] (000/866) No match
12 [6674f3e5] (002/651) Accurately ripped
Offsetted by -719:
01 [25366006] (000/621) No match (V2 was not tested)
02 [3a06aedb] (000/621) No match (V2 was not tested)
03 [407b971a] (000/620) No match (V2 was not tested)
04 [8fb04244] (000/618) No match (V2 was not tested)
05 [c4ff5403] (000/619) No match (V2 was not tested)
06 [7fe78845] (000/622) No match (V2 was not tested)
07 [1d854aad] (000/619) No match (V2 was not tested)
08 [74dd599b] (000/620) No match (V2 was not tested)
09 [8ebb0c88] (000/620) No match (V2 was not tested)
10 [908dac72] (000/616) No match (V2 was not tested)
11 [4b3a8cca] (000/866) No match (V2 was not tested)
12 [5d564a9b] (000/651) No match
Offsetted by -689:
01 [04bdb434] (044/621) Accurately ripped
02 [2f90455a] (042/621) Accurately ripped
03 [781b315d] (044/620) Accurately ripped
04 [12210eac] (044/618) Accurately ripped
05 [4d8b1b47] (044/619) Accurately ripped
06 [391c36bf] (044/622) Accurately ripped
07 [81643e1a] (044/619) Accurately ripped
08 [04cbb714] (044/620) Accurately ripped
09 [51d244f8] (044/620) Accurately ripped
10 [1e36ed63] (044/616) Accurately ripped
11 [474a1a88] (000/866) No match (V2 was not tested)
12 [9c7de8d8] (000/651) No match (V2 was not tested)
Offsetted by -659:
01 [e8e84c2f] (000/621) No match (V2 was not tested)
02 [9f175a03] (000/621) No match (V2 was not tested)
03 [bfe5f1a1] (000/620) No match (V2 was not tested)
04 [70746dea] (000/618) No match (V2 was not tested)
05 [f06a1447] (000/619) No match (V2 was not tested)
06 [6e3ac941] (000/622) No match (V2 was not tested)
07 [28225dc9] (000/619) No match (V2 was not tested)
08 [55fe1c15] (000/620) No match (V2 was not tested)
09 [6e4c91ac] (000/620) No match (V2 was not tested)
10 [1b23dcdd] (000/616) No match (V2 was not tested)
11 [d7d01af8] (000/866) No match (V2 was not tested)
12 [5c946fbd] (044/651) Accurately ripped
Offsetted by -629:
01 [e2376f0b] (000/621) No match
02 [37f61a7a] (000/621) No match
03 [2f4aaa19] (000/620) No match
04 [14ee3be6] (000/618) No match
05 [fe45e49c] (000/619) No match
06 [d86b9b65] (000/622) No match
07 [30903892] (000/619) No match
08 [670cc126] (000/620) No match
09 [6efec592] (000/620) No match
10 [31bc9be4] (000/616) No match
11 [2aa2660f] (000/866) No match
12 [28e61187] (000/651) No match (V2 was not tested)
Offsetted by -98:
01 [86efeddf] (000/621) No match (V2 was not tested)
02 [33de98a5] (000/621) No match (V2 was not tested)
03 [ffef91cc] (000/620) No match (V2 was not tested)
04 [d2b54c13] (000/618) No match
05 [792b5c30] (000/619) No match
06 [5fc2e430] (000/622) No match (V2 was not tested)
07 [641d2e41] (000/619) No match (V2 was not tested)
08 [bc10fb2e] (000/620) No match (V2 was not tested)
09 [8a42e58f] (000/620) No match (V2 was not tested)
10 [439cdc09] (000/616) No match (V2 was not tested)
11 [41879aa3] (000/866) No match (V2 was not tested)
12 [4e999fad] (000/651) No match
Offsetted by -71:
01 [ed77b429] (000/621) No match (V2 was not tested)
02 [47332397] (000/621) No match (V2 was not tested)
03 [7975ea65] (000/620) No match (V2 was not tested)
04 [65ab0847] (000/618) No match (V2 was not tested)
05 [9ae22104] (000/619) No match (V2 was not tested)
06 [15df4ab6] (000/622) No match (V2 was not tested)
07 [49fbf572] (000/619) No match (V2 was not tested)
08 [d25cf03d] (000/620) No match (V2 was not tested)
09 [d30c9f51] (000/620) No match (V2 was not tested)
10 [f5163678] (000/616) No match (V2 was not tested)
11 [0af6512d] (000/866) No match (V2 was not tested)
12 [b7ed48df] (000/651) No match
Offsetted by -41:
01 [59c49fab] (000/621) No match
02 [e738839e] (000/621) No match
03 [68cbb0dd] (000/620) No match
04 [9a261343] (000/618) No match
05 [93748955] (000/619) No match
06 [c33eeb3c] (000/622) No match
07 [30dd006b] (000/619) No match
08 [b040ad99] (000/620) No match
09 [3497ef42] (000/620) No match
10 [cdacac1e] (000/616) No match
11 [be92336a] (000/866) No match
12 [b4e21fd2] (000/651) No match (V2 was not tested)
More than 16 offsets match!

Track Peak [ CRC32 ] [W/O NULL] [ LOG ]
– 99,9 [E180C1FC] [1C681651] CRC32
01 99,9 [3B3FEC13] [4427B407]
02 99,9 [5D36B8DF] [9E10973A]
03 99,9 [FC4A7F02] [0B5B9F49]
04 99,9 [BA5BC13F] [72025395]
05 87,5 [060CD3AB] [F69348C7]
06 99,9 [6182CE31] [107E418B]
07 99,9 [B5109FD9] [0047126E]
08 96,9 [768A9352] [A2A3A399]
09 99,9 [9A7A723E] [F84F1611]
10 99,9 [0C0A78FC] [0EC4E008]
11 88,9 [4EEB61AB] [87A59C57]
12 99,9 [40EFF63B] [B5546D1F]


Eric Clapton - Journeyman (1989)

All thanks go to the original releaser

Eric Clapton in my Blog

Download Eric Clapton - Journeyman (1989):