Subcategories
Tags
Language
Tags

Esperanza Spalding - Junjo (2006) {Connector}

Posted By: tiburon
Esperanza Spalding - Junjo (2006) {Connector}

Esperanza Spalding - Junjo (2006) {Connector}
EAC 0.95b4 | FLAC tracks level 8 | Cue+Log+M3U | Full Scans 600dpi | 275MB + 5% Recovery
MP3 CBR 320 Kbps | 130MB + 5% Recovery
Genre: Jazz, Post-Bop, Latin Jazz

Esperanza Spalding's debut drives jazz's modern mainstream with a hip-sounding classic piano trio. Her emotional, wordless vocals and conversational bass playing offer a delightful celebration of music as folk art. Spalding's bass playing gets noticed while she interprets traditional jazz favorites as well as fresh new originals.
Track List
01. The Peacocks 7:53
02. Loro 5:03
03. Humpty Dumpty 5:47
04. Mompouana 7:48
05. Perazuan 3:32
06. Junjo 5:10
07. Cantora De Yala 4:52
08. Two Bad 6:46
09. Perazela 1:32

musicians
Esperanza Spalding - acoustic bass, vocals
Aruan Ortiz - piano
Francisco Mela - drums

Produced by Esperanza Spalding


EAC extraction logfile from 5. May 2010, 23:49 for CD
Esperanza Spalding / Junjo

Used drive : HL-DT-STBDDVDRW GGC-H20L Adapter: 0 ID: 3
Read mode : Secure with NO C2, accurate stream, disable cache
Read offset correction : 667
Overread into Lead-In and Lead-Out : No

Used output format : C:\Programs\EAC\Encoders\Flac\flac.exe (User Defined Encoder)
32 kBit/s
Additional command line options : -V -8 -T "artist=%a" -T "title=%t" -T "album=%g" -T "date=%y" -T "tracknumber=%n" -T "genre=%m" %s -T"comment=EAC (secure mode) / FLAC 1.1.4 - by manfred"

Other options :
Fill up missing offset samples with silence : Yes
Delete leading and trailing silent blocks : No
Installed external ASPI interface


Track 1
Filename D:\Music\Esperanza Spalding - Junjo (2004) [FLAC]\01 - The Peacocks.wav

Pre-gap length 0:00:02.00

Peak level 100.0 %
Track quality 99.9 %
Test CRC 592CA54F
Copy CRC 592CA54F
Copy OK

Track 2
Filename D:\Music\Esperanza Spalding - Junjo (2004) [FLAC]\02 - Loro.wav

Peak level 100.0 %
Track quality 100.0 %
Test CRC 070FA106
Copy CRC 070FA106
Copy OK

Track 3
Filename D:\Music\Esperanza Spalding - Junjo (2004) [FLAC]\03 - Humpty Dumpty.wav

Peak level 100.0 %
Track quality 100.0 %
Test CRC CDBA54B9
Copy CRC CDBA54B9
Copy OK

Track 4
Filename D:\Music\Esperanza Spalding - Junjo (2004) [FLAC]\04 - Mompouana.wav

Peak level 100.0 %
Track quality 100.0 %
Test CRC 6428BE1F
Copy CRC 6428BE1F
Copy OK

Track 5
Filename D:\Music\Esperanza Spalding - Junjo (2004) [FLAC]\05 - Perazuan.wav

Peak level 79.4 %
Track quality 100.0 %
Test CRC AA2D1470
Copy CRC AA2D1470
Copy OK

Track 6
Filename D:\Music\Esperanza Spalding - Junjo (2004) [FLAC]\06 - Junjo.wav

Peak level 85.7 %
Track quality 100.0 %
Test CRC 190F87F9
Copy CRC 190F87F9
Copy OK

Track 7
Filename D:\Music\Esperanza Spalding - Junjo (2004) [FLAC]\07 - Cantora de Yala.wav

Peak level 56.2 %
Track quality 100.0 %
Test CRC 8C6A4D45
Copy CRC 8C6A4D45
Copy OK

Track 8
Filename D:\Music\Esperanza Spalding - Junjo (2004) [FLAC]\08 - Two Bad.wav

Peak level 100.0 %
Track quality 100.0 %
Test CRC 25EC2A32
Copy CRC 25EC2A32
Copy OK

Track 9
Filename D:\Music\Esperanza Spalding - Junjo (2004) [FLAC]\09 - Perazela.wav

Peak level 100.0 %
Track quality 100.0 %
Test CRC 821F7029
Copy CRC 821F7029
Copy OK

No errors occured


End of status report


––––––––––––––––––––––––––––––––––––––––
Analyzed: Esperanza Spalding / Junjo
––––––––––––––––––––––––––––––––––––––––

DR Peak RMS Duration Track
––––––––––––––––––––––––––––––––––––––––
DR12 0.00 dB -15.43 dB 7:57 01-The Peacocks
DR11 0.00 dB -14.81 dB 5:07 02-Loro
DR15 0.00 dB -19.02 dB 5:51 03-Humpty Dumpty
DR13 0.00 dB -16.36 dB 7:51 04-Mompouana
DR15 -2.00 dB -23.19 dB 3:39 05-Perazuan
DR14 -1.33 dB -18.91 dB 5:14 06-Junjo
DR14 -5.00 dB -25.13 dB 4:56 07-Cantora de Yala
DR17 0.00 dB -21.62 dB 6:59 08-Two Bad
DR17 0.00 dB -21.29 dB 1:33 09-Perazela
––––––––––––––––––––––––––––––––––––––––

Number of tracks: 9
Official DR value: DR14

Samplerate: 44100 Hz
Channels: 2
Bits per sample: 16
Bitrate: 857 kbps
Codec: FLAC
================================================================================

Esperanza Spalding - Junjo (2006) {Connector}
Esperanza Spalding - Junjo (2006) {Connector}
Esperanza Spalding - Junjo (2006) {Connector}


Thanks to the original ripper