Tags
Language
Tags
November 2022
Su Mo Tu We Th Fr Sa
30 31 1 2 3 4 5
6 7 8 9 10 11 12
13 14 15 16 17 18 19
20 21 22 23 24 25 26
27 28 29 30 1 2 3

Etan Haziza - Equilibrium (2007) {SR}

Posted By: tiburon
Etan Haziza - Equilibrium (2007) {SR}

Etan Haziza - Equilibrium (2007) {SR}
EAC 1.3 | FLAC tracks level 8 | Cue+Log+M3U | Full Scans 300dpi | 257MB + 5% Recovery
MP3 CBR 320 Kbps | 122MB + 5% Recovery
Genre: Jazz, Post-Bop

Equilibrium is the debut album by Israelian jazz guitarist Etan Haziza.
Track List
1. Equilibrium
2. Pershing Circle
3. Laurel
4. Space Monkey
5. Legend Of Z
6. Gratitude

musicians
Etan Haziza - Nylon String Guitars
Frank Hauch - Bass
Bryan Bisordi - Drums
Justin Kauflin - Piano (1&5)

Produced by Etan Haziza


Exact Audio Copy V1.3 from 2. September 2016

EAC extraction logfile from 8. January 2019, 6:02

Eitan Haziza / Equilibrium

Used drive : HL-DT-STDVDRAM GH24NSB0 Adapter: 1 ID: 0

Read mode : Secure
Utilize accurate stream : Yes
Defeat audio cache : Yes
Make use of C2 pointers : No

Read offset correction : 6
Overread into Lead-In and Lead-Out : No
Fill up missing offset samples with silence : Yes
Delete leading and trailing silent blocks : No
Null samples used in CRC calculations : Yes
Used interface : Native Win32 interface for Win NT & 2000
Gap handling : Appended to previous track

Used output format : User Defined Encoder
Selected bitrate : 1024 kBit/s
Quality : High
Add ID3 tag : No
Command line compressor : C:\Program Files (x86)\Exact Audio Copy\FLAC\FLAC.EXE
Additional command line options : -V -8 -T "Genre=%genre%" -T "Artist=%artist%" -T "Title=%title%" -T "Album=%albumtitle%" -T "Date=%year%" -T "Tracknumber=%tracknr%" -T "Comment=%comment%" %source%


TOC of the extracted CD

Track | Start | Length | Start sector | End sector
––––––––––––––––––––––––––––-
1 | 0:00.00 | 10:35.74 | 0 | 47698
2 | 10:35.74 | 7:26.60 | 47699 | 81208
3 | 18:02.59 | 5:23.34 | 81209 | 105467
4 | 23:26.18 | 5:44.35 | 105468 | 131302
5 | 29:10.53 | 8:51.74 | 131303 | 171201
6 | 38:02.52 | 7:47.47 | 171202 | 206273


Track 1

Filename D:\Music\MG rips\Eitan Haziza - Equilibrium - 2007 (Self Released) [FLAC]\01 - Equilibrium.wav

Pre-gap length 0:00:02.00

Peak level 100.0 %
Extraction speed 1.4 X
Track quality 100.0 %
Test CRC 569686B2
Copy CRC 569686B2
Track not present in AccurateRip database
Copy OK

Track 2

Filename D:\Music\MG rips\Eitan Haziza - Equilibrium - 2007 (Self Released) [FLAC]\02 - Pershing Circle.wav

Peak level 100.0 %
Extraction speed 1.6 X
Track quality 100.0 %
Test CRC 3658EEE6
Copy CRC 3658EEE6
Track not present in AccurateRip database
Copy OK

Track 3

Filename D:\Music\MG rips\Eitan Haziza - Equilibrium - 2007 (Self Released) [FLAC]\03 - Laurel.wav

Peak level 88.3 %
Extraction speed 1.7 X
Track quality 100.0 %
Test CRC 3D4B9D3C
Copy CRC 3D4B9D3C
Track not present in AccurateRip database
Copy OK

Track 4

Filename D:\Music\MG rips\Eitan Haziza - Equilibrium - 2007 (Self Released) [FLAC]\04 - Space Monkey.wav

Peak level 100.0 %
Extraction speed 1.8 X
Track quality 100.0 %
Test CRC 4358C650
Copy CRC 4358C650
Track not present in AccurateRip database
Copy OK

Track 5

Filename D:\Music\MG rips\Eitan Haziza - Equilibrium - 2007 (Self Released) [FLAC]\05 - Legend Of Z.wav

Peak level 100.0 %
Extraction speed 2.0 X
Track quality 100.0 %
Test CRC B4232303
Copy CRC B4232303
Track not present in AccurateRip database
Copy OK

Track 6

Filename D:\Music\MG rips\Eitan Haziza - Equilibrium - 2007 (Self Released) [FLAC]\06 - Gratitude.wav

Peak level 100.0 %
Extraction speed 2.1 X
Track quality 100.0 %
Test CRC 9AB7DE42
Copy CRC 9AB7DE42
Track not present in AccurateRip database
Copy OK


None of the tracks are present in the AccurateRip database

No errors occurred

End of status report

==== Log checksum 1B46972BEC01308A889299CC3BFC813C1E383A2263566FD4B4BF50EB8C739B4C ====

Etan Haziza - Equilibrium (2007) {SR}
Etan Haziza - Equilibrium (2007) {SR}


Thanks to the original ripper