Subcategories
Tags
Language
Tags

Evgeni Koroliov - Johann Sebastian Bach: Goldberg Variations (1999)

Posted By: ArlegZ
Evgeni Koroliov - Johann Sebastian Bach: Goldberg Variations (1999)

Evgeni Koroliov - Johann Sebastian Bach: Goldberg Variations (1999)
EAC | FLAC | Image (Cue & Log) ~ 436 Mb | Total time: 84:52 | Scans included
Classical | Label: Hänssler Classic | CD 92.112 | Recorded: 1999

Evgeny Koroliovʼs Golberg variations have become a cult recording. Seldom has this monumental piece sounded so purely musical, with such natural rhetorics, in fact simply so beautiful as in his hands. This recording was showered with international prizes, such as Diapason dʼor and others. György Ligeti chose Koroliovʼs Bach as his desert island disc : “forsaken and dying of thirst, I would listen to it up ʻtil my last breath”. Koroliov was born in Russia in 1949, his teachers were Maria Yudina, Heinrich Neuhaus and Lev Oborin. He soon settled in Hamburg/Germany, from where he developed his international career as a soloist and much-in-demand teacher.

Performer:
Evgeni Koroliov, piano

Track List:
CD1:
Goldberg Variations, BWV 988
01. I. Aria
02. II. Variatio 1 a 1 clavier
03. III. Variatio 2 a 1 clavier
04. IV. Variatio 3 canone all’unisuono a 1 clavier
05. V. Variatio 4 a 1 clavier
06. VI. Variatio 5 a 1 ô vero 2 clavier
07. VII. Variatio 6 canone alla seconda a 1 clavier
08. VIII. Variatio 7 a 1 ô ver 2 clavier al tempo di giga
09. IX. Variatio 8 a 2 clavier
10. X. Variatio 9 canone alla terza a 1 clavier
11. XI. Variatio 10 fughetta a 1 clavier
12. XII. Variatio 11 a 2 clavier
13. XIII. Variatio 12 canone alla quarta a 1 clavier
14. XIV. Variatio 13 a 2 clavier
15. XV. Variatio 14 a 2 clavier
16. XVI. Variatio 15 canone alla quinta a 1 clavier
CD2:
01. XVII. Variatio 16 ouvertüre a 1 clavier
02. XVIII. Variatio 17 a 2 clavier
03. XIX. Variatio 18 canone alla sexta a 1 clavier
04. XX. Variatio 19 a 1 clavier
05. XXI. Variatio 20 a 2 clavier
06. XXII. Variatio 21 canone alla settima a 1 clavier
07. XXIII. Variatio 22 a 1 clavier
08. XXIV. Variatio 23 a 2 clavier
09. XXV. Variatio 24 canone all’ ottava a 1 clavier
10. XXVI. Variatio 25 a 2 clavier
11. XXVII. Variatio 26 a 2 clavier
12. XXVIII. Variatio 27 canone alla nona a 2 clavier
13. XXIX. Variatio 28 a 2 clavier
14. XXX. Variatio 29 a 1 ô vero 2 clavier
15. XXXI. Variatio 30 quodlibet a 1 clavier
16. XXXII. Aria da cato è fine


Exact Audio Copy V1.5 from 20. February 2020

EAC extraction logfile from 10. March 2020, 17:51

Evgeni Koroliov / Bach - Goldberg Variations CD1

Used drive : HL-DT-STBD-RE WH16NS40 Adapter: 1 ID: 0

Read mode : Secure
Utilize accurate stream : Yes
Defeat audio cache : Yes
Make use of C2 pointers : No

Read offset correction : 6
Overread into Lead-In and Lead-Out : No
Fill up missing offset samples with silence : Yes
Delete leading and trailing silent blocks : No
Null samples used in CRC calculations : Yes
Used interface : Native Win32 interface for Win NT & 2000

Used output format : User Defined Encoder
Selected bitrate : 1024 kBit/s
Quality : High
Add ID3 tag : No
Command line compressor : C:\Program Files (x86)\Exact Audio Copy\FLAC\FLAC.EXE
Additional command line options : -6 -V -T "ARTIST=%artist%" -T "TITLE=%title%" -T "ALBUM=%albumtitle%" -T "DATE=%year%" -T "TRACKNUMBER=%tracknr%" -T "GENRE=%genre%" -T "COMMENT=%comment%" -T "BAND=%albuminterpret%" -T "ALBUMARTIST=%albuminterpret%" -T "COMPOSER=%composer%" %haslyrics%–tag-from-file=LYRICS="%lyricsfile%"%haslyrics% -T "DISCNUMBER=%cdnumber%" -T "TOTALDISCS=%totalcds%" -T "TOTALTRACKS=%numtracks%" %hascover%–picture="%coverfile%"%hascover% %source% -o %dest%


TOC of the extracted CD

Track | Start | Length | Start sector | End sector
––––––––––––––––––––––––––––-
1 | 0:00.00 | 4:58.57 | 0 | 22406
2 | 4:58.57 | 1:52.66 | 22407 | 30872
3 | 6:51.48 | 1:37.27 | 30873 | 38174
4 | 8:29.00 | 2:00.13 | 38175 | 47187
5 | 10:29.13 | 1:03.74 | 47188 | 51986
6 | 11:33.12 | 1:14.61 | 51987 | 57597
7 | 12:47.73 | 1:37.26 | 57598 | 64898
8 | 14:25.24 | 1:57.30 | 64899 | 73703
9 | 16:22.54 | 1:52.10 | 73704 | 82113
10 | 18:14.64 | 1:56.33 | 82114 | 90846
11 | 20:11.22 | 1:34.53 | 90847 | 97949
12 | 21:46.00 | 1:50.17 | 97950 | 106216
13 | 23:36.17 | 2:12.37 | 106217 | 116153
14 | 25:48.54 | 5:41.39 | 116154 | 141767
15 | 31:30.18 | 2:10.09 | 141768 | 151526
16 | 33:40.27 | 5:42.30 | 151527 | 177206


Range status and errors

Selected range

Filename C:\Users\Grant\Desktop\Evgeni Koroliov - Bach - Goldberg Variations CD1.wav

Peak level 97.9 %
Extraction speed 7.2 X
Range quality 100.0 %
Test CRC BFDD65C7
Copy CRC BFDD65C7
Copy OK

No errors occurred


AccurateRip summary

Track 1 accurately ripped (confidence 19) [F9AC4782] (AR v2)
Track 2 accurately ripped (confidence 19) [5EDB6D04] (AR v2)
Track 3 accurately ripped (confidence 19) [8238602B] (AR v2)
Track 4 accurately ripped (confidence 19) [9F2EA5C5] (AR v2)
Track 5 accurately ripped (confidence 19) [8F87EF93] (AR v2)
Track 6 accurately ripped (confidence 19) [817B61A5] (AR v2)
Track 7 accurately ripped (confidence 19) [2B00F6AB] (AR v2)
Track 8 accurately ripped (confidence 19) [E1D0FB77] (AR v2)
Track 9 accurately ripped (confidence 19) [6AEB95C1] (AR v2)
Track 10 accurately ripped (confidence 19) [E5EACA11] (AR v2)
Track 11 accurately ripped (confidence 19) [7745FF70] (AR v2)
Track 12 accurately ripped (confidence 19) [656A35DF] (AR v2)
Track 13 accurately ripped (confidence 19) [990AB4EE] (AR v2)
Track 14 accurately ripped (confidence 19) [3C24D456] (AR v2)
Track 15 accurately ripped (confidence 19) [64461924] (AR v2)
Track 16 accurately ripped (confidence 19) [4AFF1CFE] (AR v2)

All tracks accurately ripped

End of status report

–– CUETools DB Plugin V2.1.6

[CTDB TOCID: yeTm7judkkxO.9wJXNPmW.ImGsU-] found
Submit result: yeTm7judkkxO.9wJXNPmW.ImGsU- has been confirmed
Track | CTDB Status
1 | (58/58) Accurately ripped
2 | (58/58) Accurately ripped
3 | (58/58) Accurately ripped
4 | (45/58) Accurately ripped
5 | (45/58) Accurately ripped
6 | (58/58) Accurately ripped
7 | (58/58) Accurately ripped
8 | (58/58) Accurately ripped
9 | (58/58) Accurately ripped
10 | (58/58) Accurately ripped
11 | (58/58) Accurately ripped
12 | (58/58) Accurately ripped
13 | (58/58) Accurately ripped
14 | (58/58) Accurately ripped
15 | (58/58) Accurately ripped
16 | (58/58) Accurately ripped


==== Log checksum F6CEC046C9AC423DE2A3DE965B106F551C79F799EB576BD9454EE3D39541C48D ====


Exact Audio Copy V1.5 from 20. February 2020

EAC extraction logfile from 10. March 2020, 18:12

Evgeni Koroliov / Bach - Goldberg Variations CD2

Used drive : HL-DT-STBD-RE WH16NS40 Adapter: 1 ID: 0

Read mode : Secure
Utilize accurate stream : Yes
Defeat audio cache : Yes
Make use of C2 pointers : No

Read offset correction : 6
Overread into Lead-In and Lead-Out : No
Fill up missing offset samples with silence : Yes
Delete leading and trailing silent blocks : No
Null samples used in CRC calculations : Yes
Used interface : Native Win32 interface for Win NT & 2000

Used output format : User Defined Encoder
Selected bitrate : 1024 kBit/s
Quality : High
Add ID3 tag : No
Command line compressor : C:\Program Files (x86)\Exact Audio Copy\FLAC\FLAC.EXE
Additional command line options : -6 -V -T "ARTIST=%artist%" -T "TITLE=%title%" -T "ALBUM=%albumtitle%" -T "DATE=%year%" -T "TRACKNUMBER=%tracknr%" -T "GENRE=%genre%" -T "COMMENT=%comment%" -T "BAND=%albuminterpret%" -T "ALBUMARTIST=%albuminterpret%" -T "COMPOSER=%composer%" %haslyrics%–tag-from-file=LYRICS="%lyricsfile%"%haslyrics% -T "DISCNUMBER=%cdnumber%" -T "TOTALDISCS=%totalcds%" -T "TOTALTRACKS=%numtracks%" %hascover%–picture="%coverfile%"%hascover% %source% -o %dest%


TOC of the extracted CD

Track | Start | Length | Start sector | End sector
––––––––––––––––––––––––––––-
1 | 0:00.00 | 3:04.29 | 0 | 13828
2 | 3:04.29 | 1:48.71 | 13829 | 21999
3 | 4:53.25 | 2:07.70 | 22000 | 31594
4 | 7:01.20 | 2:18.21 | 31595 | 41965
5 | 9:19.41 | 1:45.16 | 41966 | 49856
6 | 11:04.57 | 3:26.36 | 49857 | 65342
7 | 14:31.18 | 1:54.06 | 65343 | 73898
8 | 16:25.24 | 2:05.01 | 73899 | 83274
9 | 18:30.25 | 2:41.31 | 83275 | 95380
10 | 21:11.56 | 11:09.62 | 95381 | 145617
11 | 32:21.43 | 2:31.34 | 145618 | 156976
12 | 34:53.02 | 1:44.68 | 156977 | 164844
13 | 36:37.70 | 2:05.66 | 164845 | 174285
14 | 38:43.61 | 2:29.07 | 174286 | 185467
15 | 41:12.68 | 1:40.51 | 185468 | 193018
16 | 42:53.44 | 2:57.05 | 193019 | 206298


Range status and errors

Selected range

Filename C:\Users\Grant\Desktop\Evgeni Koroliov - Bach - Goldberg Variations CD2.wav

Peak level 97.9 %
Extraction speed 7.5 X
Range quality 100.0 %
Test CRC 8D7D9066
Copy CRC 8D7D9066
Copy OK

No errors occurred


AccurateRip summary

Track 1 accurately ripped (confidence 19) [48AA9699] (AR v2)
Track 2 accurately ripped (confidence 19) [9FAE40FE] (AR v2)
Track 3 accurately ripped (confidence 19) [3C6AD4A7] (AR v2)
Track 4 accurately ripped (confidence 19) [456DED62] (AR v2)
Track 5 accurately ripped (confidence 19) [74AB0679] (AR v2)
Track 6 accurately ripped (confidence 19) [E186537E] (AR v2)
Track 7 accurately ripped (confidence 19) [78F38F7D] (AR v2)
Track 8 accurately ripped (confidence 19) [129309CB] (AR v2)
Track 9 accurately ripped (confidence 19) [67317F10] (AR v2)
Track 10 accurately ripped (confidence 19) [278F4B10] (AR v2)
Track 11 accurately ripped (confidence 19) [F7E093F2] (AR v2)
Track 12 accurately ripped (confidence 19) [930C8B3D] (AR v2)
Track 13 accurately ripped (confidence 19) [DEF3A3D8] (AR v2)
Track 14 accurately ripped (confidence 19) [F9B1CEE6] (AR v2)
Track 15 accurately ripped (confidence 19) [75D5EF4E] (AR v2)
Track 16 accurately ripped (confidence 18) [093DA996] (AR v2)

All tracks accurately ripped

End of status report

–– CUETools DB Plugin V2.1.6

[CTDB TOCID: PMQVhT1iwhf6Rhb4mW3UgRwTUtE-] found
Submit result: PMQVhT1iwhf6Rhb4mW3UgRwTUtE- has been confirmed
Track | CTDB Status
1 | (159/161) Accurately ripped
2 | (159/161) Accurately ripped
3 | (159/161) Accurately ripped
4 | (159/161) Accurately ripped
5 | (159/161) Accurately ripped
6 | (159/161) Accurately ripped
7 | (159/161) Accurately ripped
8 | (159/161) Accurately ripped
9 | (159/161) Accurately ripped
10 | (159/161) Accurately ripped
11 | (159/161) Accurately ripped
12 | (159/161) Accurately ripped
13 | (159/161) Accurately ripped
14 | (159/161) Accurately ripped
15 | (159/161) Accurately ripped
16 | (159/161) Accurately ripped


==== Log checksum AC6E122401EA96A6B19B76C23AA1D015F543BC16D9C7D5B4824EA08FE7A9E4F3 ====

Evgeni Koroliov - Johann Sebastian Bach: Goldberg Variations (1999)

Thanks to the original releaser