Subcategories
Tags
Language
Tags

Extreme - Pornograffitti Live 25 (2016) [2CD, Japanese Edition]

Posted By: v3122
Extreme - Pornograffitti Live 25 (2016) [2CD, Japanese Edition]

Extreme - Pornograffitti Live 25 (2016)
EAC | Flac(Image) + Cue + Log & MP3 CBR 320Kbps
2CD | Victor Entertainment, VICP-65417~8 | ~ 648 or 204 Mb | Scans(jpg) -> 44 Mb
Hard Rock, Glam Metal

Last year marked the 25th anniversary of Extreme's classic multi-Platinum, Grammy nominated PORNOGRAFFITTI, the definitive album of the band's career. To mark the anniversary, Loud & Proud Records releases PORNOGRAFFITTI LIVE 25 / METAL MELTDOWN, a 3-disc set as part of their four-part Metal Meltdown DVD series. The concert film captures the the Boston band performing PORNOGRAFFITTI in its entirety. The BluRay/DVD/CD release also features a documentary that takes fans through Extreme's story, archive footage and a photo gallery. The band achieved their greatest success with their 1990 album PORNOGRAFFITTI, which peaked at #10 on the Billboard's Top 200 Albums chart, and was certified multi-Platinum. Musically, PORNOGRAFFITTI is dominated by blistering guitar riffs, often with funky, syncopated timing, and incendiary, high-speed rock/metal solos. The record garnered Bettencourt widespread admiration from rock guitar enthusiasts and provided continued exposure in leading guitar publications. But it was the acoustic ballad single,"More Than Words", that reached #1 on Billboard's Hot 100 chart and was nominated for a Grammy Award for Pop Performance By A Duo Or Group With Vocal. The subsequent single, "Hole Hearted", another acoustic track, was also successful, rising to #4 on the same chart. "Decadence Dance"; and "Get the Funk Out"; were also released as singles both landing on Billboard's Rock chart and becoming fan favorites.

~ amazon
Extreme - Pornograffitti Live 25 (2016) [2CD, Japanese Edition]


Extreme - Pornograffitti Live 25 (2016):

Extreme - Pornograffitti Live 25 (2016) [2CD, Japanese Edition]

Tracklist CD1:

1. Decadence Dance
2. Li'l Jack Horny
3. When I'm President
4. Get The Funk Out
5. More Than Words
6. Money (In God We Trust)
7. It ('s A Monster)
8. Pornograffitti
9. When I First Kissed You
10. Suzi (Wants Her All Day What?)
11. Flight Of The Wounded Bumblebee
12. He-Man Woman Hater
13. Song For Love
14. Hole Hearted

Exact Audio Copy V1.1 from 23. June 2015

EAC extraction logfile from 5. March 2017, 16:11

Extreme / Pornografitti Live 25

Used drive : ASUS DRW-24B1ST Adapter: 1 ID: 1

Read mode : Secure
Utilize accurate stream : Yes
Defeat audio cache : Yes
Make use of C2 pointers : No

Read offset correction : 6
Overread into Lead-In and Lead-Out : No
Fill up missing offset samples with silence : Yes
Delete leading and trailing silent blocks : No
Null samples used in CRC calculations : Yes
Used interface : Native Win32 interface for Win NT & 2000

Used output format : User Defined Encoder
Selected bitrate : 1024 kBit/s
Quality : High
Add ID3 tag : No
Command line compressor : C:\Program Files (x86)\Exact Audio Copy\Flac\flac.exe
Additional command line options : -V -8 -T "Date=%year%" -T "Genre=%genre%" %source%


TOC of the extracted CD

Track | Start | Length | Start sector | End sector
––––––––––––––––––––––––––––-
1 | 0:00.00 | 9:27.66 | 0 | 42590
2 | 9:27.66 | 5:20.08 | 42591 | 66598
3 | 14:47.74 | 4:55.06 | 66599 | 88729
4 | 19:43.05 | 6:16.33 | 88730 | 116962
5 | 25:59.38 | 6:15.51 | 116963 | 145138
6 | 32:15.14 | 4:26.40 | 145139 | 165128
7 | 36:41.54 | 4:38.53 | 165129 | 186031
8 | 41:20.32 | 6:31.07 | 186032 | 215363
9 | 47:51.39 | 4:35.04 | 215364 | 235992
10 | 52:26.43 | 4:30.56 | 235993 | 256298
11 | 56:57.24 | 1:35.68 | 256299 | 263491
12 | 58:33.17 | 4:58.58 | 263492 | 285899
13 | 63:32.00 | 7:32.40 | 285900 | 319839
14 | 71:04.40 | 4:02.07 | 319840 | 337996


Range status and errors

Selected range

Filename E:\Torrent\# MY\# Подготовка раздач\Extreme\2016 - Pornografitti Live 25 (Victor, VICP-65417~8, Japan)\CD-1\Extreme - Pornografitti Live 25 (CD-1).wav

Peak level 98.8 %
Extraction speed 3.6 X
Range quality 100.0 %
Test CRC 39B5BC6A
Copy CRC 39B5BC6A
Copy OK

No errors occurred


AccurateRip summary

Track 1 not present in database
Track 2 not present in database
Track 3 not present in database
Track 4 not present in database
Track 5 not present in database
Track 6 not present in database
Track 7 not present in database
Track 8 not present in database
Track 9 not present in database
Track 10 not present in database
Track 11 not present in database
Track 12 not present in database
Track 13 not present in database
Track 14 not present in database

None of the tracks are present in the AccurateRip database

End of status report

–– CUETools DB Plugin V2.1.6

[CTDB TOCID: atb4bXOhwibMaeD0LHgQewG537g-] found
Submit result: atb4bXOhwibMaeD0LHgQewG537g- has been confirmed
Track | CTDB Status
1 | (1/1) Accurately ripped
2 | (1/1) Accurately ripped
3 | (1/1) Accurately ripped
4 | (1/1) Accurately ripped
5 | (1/1) Accurately ripped
6 | (1/1) Accurately ripped
7 | (1/1) Accurately ripped
8 | (1/1) Accurately ripped
9 | (1/1) Accurately ripped
10 | (1/1) Accurately ripped
11 | (1/1) Accurately ripped
12 | (1/1) Accurately ripped
13 | (1/1) Accurately ripped
14 | (1/1) Accurately ripped


==== Log checksum 0B17EE74B70AD4EFB61ADFF7B0554DA0337A1B8BA75B13C83D7056806F42955F ====

[CUETools log; Date: 06.08.2017 18:16:51; Version: 2.1.4]
[CTDB TOCID: atb4bXOhwibMaeD0LHgQewG537g-] found.
Track | CTDB Status
1 | (2/2) Accurately ripped
2 | (2/2) Accurately ripped
3 | (2/2) Accurately ripped
4 | (2/2) Accurately ripped
5 | (2/2) Accurately ripped
6 | (2/2) Accurately ripped
7 | (2/2) Accurately ripped
8 | (2/2) Accurately ripped
9 | (2/2) Accurately ripped
10 | (2/2) Accurately ripped
11 | (2/2) Accurately ripped
12 | (2/2) Accurately ripped
13 | (2/2) Accurately ripped
14 | (2/2) Accurately ripped
[AccurateRip ID: 002998b4-01af9282-db119a0e] disk not present in database.

Track Peak [ CRC32 ] [W/O NULL] [ LOG ]
– 98,8 [39B5BC6A] [DF149E76] CRC32
01 98,8 [08955704] [550BC496]
02 98,8 [843A297E] [C1340C57]
03 98,8 [A599F680] [4D65F1EB]
04 98,8 [E628FB14] [276FC9DC]
05 98,8 [C4F8041D] [52AF5E59]
06 98,8 [F3F18165] [B9598FC6]
07 98,8 [79E805F1] [F5AE486F]
08 98,8 [A060E2DA] [084989D6]
09 98,8 [06944905] [BEF8150A]
10 98,8 [5FA9A5E9] [BEC8EBD2]
11 66,9 [C198FFBC] [D9E4CAE7]
12 98,8 [6263CC1E] [FB6610A8]
13 98,8 [1E6CA188] [C2DF3234]
14 98,8 [8DBEFCC2] [2E5E1199]

Extreme - Pornograffitti Live 25 (2016) [2CD, Japanese Edition]

Tracklist CD2:

1. Play With Me
2. Cupid's Dead

Exact Audio Copy V1.1 from 23. June 2015

EAC extraction logfile from 5. March 2017, 16:22

Extreme / Pornograffitti 25 Live

Used drive : ASUS DRW-24B1ST Adapter: 1 ID: 1

Read mode : Secure
Utilize accurate stream : Yes
Defeat audio cache : Yes
Make use of C2 pointers : No

Read offset correction : 6
Overread into Lead-In and Lead-Out : No
Fill up missing offset samples with silence : Yes
Delete leading and trailing silent blocks : No
Null samples used in CRC calculations : Yes
Used interface : Native Win32 interface for Win NT & 2000

Used output format : User Defined Encoder
Selected bitrate : 1024 kBit/s
Quality : High
Add ID3 tag : No
Command line compressor : C:\Program Files (x86)\Exact Audio Copy\Flac\flac.exe
Additional command line options : -V -8 -T "Date=%year%" -T "Genre=%genre%" %source%


TOC of the extracted CD

Track | Start | Length | Start sector | End sector
––––––––––––––––––––––––––––-
1 | 0:00.00 | 4:29.31 | 0 | 20205
2 | 4:29.31 | 6:56.12 | 20206 | 51417


Range status and errors

Selected range

Filename E:\Torrent\# MY\# Подготовка раздач\Extreme\2016 - Pornografitti Live 25 (Victor, VICP-65417~8, Japan)\CD-2\Extreme - Pornografitti Live 25 (CD-2).wav

Peak level 98.8 %
Extraction speed 1.9 X
Range quality 99.9 %
Test CRC 4C2F1562
Copy CRC 4C2F1562
Copy OK

No errors occurred


AccurateRip summary

Track 1 not present in database
Track 2 not present in database

None of the tracks are present in the AccurateRip database

End of status report

–– CUETools DB Plugin V2.1.6

[CTDB TOCID: lDsbxoHrjrF5oaxxvSRH3zJfGGE-] found
Submit result: lDsbxoHrjrF5oaxxvSRH3zJfGGE- has been confirmed
Track | CTDB Status
1 | (1/1) Accurately ripped
2 | (1/1) Accurately ripped


==== Log checksum 5A77AC68AC08CC51D2D0D73581AD0B78978B0EBA36A72CF73F6727FC45445D3F ====

[CUETools log; Date: 06.08.2017 18:16:54; Version: 2.1.4]
[CTDB TOCID: lDsbxoHrjrF5oaxxvSRH3zJfGGE-] found.
Track | CTDB Status
1 | (2/2) Accurately ripped
2 | (2/2) Accurately ripped
[AccurateRip ID: 000117c8-0002f86b-0c02ad02] disk not present in database.

Track Peak [ CRC32 ] [W/O NULL] [ LOG ]
– 98,8 [4C2F1562] [715C3F02] CRC32
01 98,8 [223F58AF] [C603C163]
02 98,8 [D7445F39] [62FA30F2]

Extreme - Pornograffitti Live 25 (2016) [2CD, Japanese Edition]

All thanks go to Ginger Devil

Extreme in my Blog

Download Extreme - Pornograffitti Live 25 (2016):