Tags
Language
Tags

Fabio Biondi, Europa Galante, Dorothea Roschmann, David Daniels - Pergolesi: Stabat Mater, Salve Regina (2006)

Posted By: ArlegZ
Fabio Biondi, Europa Galante, Dorothea Roschmann, David Daniels - Pergolesi: Stabat Mater, Salve Regina (2006)

Fabio Biondi, Europa Galante, Dorothea Röschmann, David Daniels - Pergolesi: Stabat Mater, Salve Regina (2006)
EAC | FLAC | Image (Cue & Log) ~ 269 Mb | Total time: 57:13 | Scans included
Classical | Label: Virgin Classics | # 363340 2 | Recorded: 2005

The market is loaded with recordings of Pergolesi's beautiful, graceful "Stabat Mater" and there are also plenty of versions of both "Salve Regina" selections to choose from. The young Pergolesi, who died at age 26, had a flair for the theater and the "Stabat Mater" was often accused of being too operatic. Fabio Biondi presents it (and the other two pieces) without much sentimentality and he uses a vastly reduced orchestra–a mere three violins, viola, cello, double bass, and theorbo (and organ)–which brings the stark religiosity to the forefront. That is not to say that these pieces aren't sensual as well; soprano Dorothea Röschmann's mesmerizing, warm tone and David Daniel's flawless, forwardly placed countertenor are lush enough to create drama of their own. And Biondi chooses tempi that are quick enough to give each movement thrust while lingering on Pergolesi's dissonances effectively. The two "Salve Regina" selections are scored for one voice each and each soloist shines brightly. Among the many versions of these works, this new set stands out.
–Robert Levine

Performer:
Dorothea Röschmann, soprano
David Daniels, countertenor
Europa Galante
Fabio Biondi, violin & direction

Track List:
Stabat Mater:
01. I. Stabat Mater dolorosa environ
02. II. Cujus animam gementem
03. III. O quam tristis et afflicta
04. IV. Quae moerabat et dolebat
05. V. Quis est homo, qui non fleret
06. VI. Vidit suum dulcem Natum
07. VII. Eja Mater, fons amoris
08. VIII. Fac Et Ardeat Cor Meum
09. IX. Sancta Mater istud agas
10. X. Fac ut portem Christi mortem
11. XI. Inflammatus et accensus
12. XII. Quando corpus morietur
Salve Regina in F minor:
13. I. Salve Regina
14. II. Ad te clamamus
15. III. Eia ergo, advocata nostra
16. IV. Et Jesum
17. V. O clemens
Salve Regina in A minor:
18. I. Salve Regina
19. II. Ad te clamamus
20. III. Eia ergo, advocata nostra
21. V. O clemens


Exact Audio Copy V1.3 from 2. September 2016

EAC extraction logfile from 10. February 2019, 18:39

Dorothea Roschmann, David Daniels; Fabio Biondi / Pergolesi - Stabat Mater. Salve Regina

Used drive : ATAPI iHAS124 F Adapter: 1 ID: 0

Read mode : Secure
Utilize accurate stream : Yes
Defeat audio cache : Yes
Make use of C2 pointers : No

Read offset correction : 6
Overread into Lead-In and Lead-Out : No
Fill up missing offset samples with silence : Yes
Delete leading and trailing silent blocks : No
Null samples used in CRC calculations : Yes
Used interface : Native Win32 interface for Win NT & 2000

Used output format : User Defined Encoder
Selected bitrate : 1024 kBit/s
Quality : High
Add ID3 tag : No
Command line compressor : C:\Program Files (x86)\Exact Audio Copy\FLAC\FLAC.EXE
Additional command line options : -6 -V -T "ARTIST=%artist%" -T "TITLE=%title%" -T "ALBUM=%albumtitle%" -T "DATE=%year%" -T "TRACKNUMBER=%tracknr%" -T "GENRE=%genre%" -T "COMMENT=%comment%" -T "BAND=%albuminterpret%" -T "ALBUMARTIST=%albuminterpret%" -T "COMPOSER=%composer%" %haslyrics%–tag-from-file=LYRICS="%lyricsfile%"%haslyrics% -T "DISCNUMBER=%cdnumber%" -T "TOTALDISCS=%totalcds%" -T "TOTALTRACKS=%numtracks%" %hascover%–picture="%coverfile%"%hascover% %source% -o %dest%


TOC of the extracted CD

Track | Start | Length | Start sector | End sector
––––––––––––––––––––––––––––-
1 | 0:00.00 | 3:56.06 | 0 | 17705
2 | 3:56.06 | 2:02.31 | 17706 | 26886
3 | 5:58.37 | 1:53.49 | 26887 | 35410
4 | 7:52.11 | 1:57.03 | 35411 | 44188
5 | 9:49.14 | 2:19.43 | 44189 | 54656
6 | 12:08.57 | 3:20.52 | 54657 | 69708
7 | 15:29.34 | 2:02.64 | 69709 | 78922
8 | 17:32.23 | 1:55.46 | 78923 | 87593
9 | 19:27.69 | 4:23.46 | 87594 | 107364
10 | 23:51.40 | 3:28.26 | 107365 | 122990
11 | 27:19.66 | 1:44.19 | 122991 | 130809
12 | 29:04.10 | 4:27.64 | 130810 | 150898
13 | 33:31.74 | 3:35.67 | 150899 | 167090
14 | 37:07.66 | 4:03.52 | 167091 | 185367
15 | 41:11.43 | 1:18.05 | 185368 | 191222
16 | 42:29.48 | 1:57.68 | 191223 | 200065
17 | 44:27.41 | 2:17.00 | 200066 | 210340
18 | 46:44.41 | 3:22.13 | 210341 | 225503
19 | 50:06.54 | 2:03.58 | 225504 | 234786
20 | 52:10.37 | 2:00.45 | 234787 | 243831
21 | 54:11.07 | 2:57.37 | 243832 | 257143


Range status and errors

Selected range

Filename C:\EACRip\HANDEL\Pergolesi - Stabat Mater. Salve Regina (D. Roschmann, D. Daniels, Fabio Biondi) (2006)\Pergolesi - Stabat Mater. Salve Regina - Europa Galante, Fabio Biondi.wav

Peak level 98.4 %
Extraction speed 8.5 X
Range quality 99.9 %
Test CRC F74F650F
Copy CRC F74F650F
Copy OK

No errors occurred


AccurateRip summary

Track 1 accurately ripped (confidence 9) [FFD35F4D] (AR v2)
Track 2 accurately ripped (confidence 9) [FFB3BDA2] (AR v2)
Track 3 accurately ripped (confidence 9) [951B3EB4] (AR v2)
Track 4 accurately ripped (confidence 9) [9B035179] (AR v2)
Track 5 accurately ripped (confidence 9) [8CF3FF44] (AR v2)
Track 6 accurately ripped (confidence 9) [0BE4C8D0] (AR v2)
Track 7 accurately ripped (confidence 9) [DBE6B60E] (AR v2)
Track 8 accurately ripped (confidence 9) [BAE3CF87] (AR v2)
Track 9 accurately ripped (confidence 9) [830F7680] (AR v2)
Track 10 accurately ripped (confidence 9) [8C7A5C2E] (AR v2)
Track 11 accurately ripped (confidence 9) [FC8720CF] (AR v2)
Track 12 accurately ripped (confidence 9) [45A64323] (AR v2)
Track 13 accurately ripped (confidence 9) [9BC0AB8B] (AR v2)
Track 14 accurately ripped (confidence 9) [B23D3732] (AR v2)
Track 15 accurately ripped (confidence 9) [29A9398B] (AR v2)
Track 16 accurately ripped (confidence 9) [1035D621] (AR v2)
Track 17 accurately ripped (confidence 9) [35780DA2] (AR v2)
Track 18 accurately ripped (confidence 9) [B798BF7A] (AR v2)
Track 19 accurately ripped (confidence 9) [C7AB8C3E] (AR v2)
Track 20 accurately ripped (confidence 9) [4EAAA489] (AR v2)
Track 21 accurately ripped (confidence 9) [A56C3A74] (AR v2)

All tracks accurately ripped

End of status report

–– CUETools DB Plugin V2.1.6

[CTDB TOCID: tniZp.DCDxGFg2qBtd7zJJhXjsg-] found
Submit result: tniZp.DCDxGFg2qBtd7zJJhXjsg- has been confirmed
Track | CTDB Status
1 | (24/24) Accurately ripped
2 | (24/24) Accurately ripped
3 | (24/24) Accurately ripped
4 | (24/24) Accurately ripped
5 | (24/24) Accurately ripped
6 | (24/24) Accurately ripped
7 | (24/24) Accurately ripped
8 | (24/24) Accurately ripped
9 | (24/24) Accurately ripped
10 | (24/24) Accurately ripped
11 | (24/24) Accurately ripped
12 | (24/24) Accurately ripped
13 | (24/24) Accurately ripped
14 | (24/24) Accurately ripped
15 | (24/24) Accurately ripped
16 | (24/24) Accurately ripped
17 | (24/24) Accurately ripped
18 | (24/24) Accurately ripped
19 | (24/24) Accurately ripped
20 | (24/24) Accurately ripped
21 | (24/24) Accurately ripped


==== Log checksum 2AC2D860568EEBDFEB37F1F9B9BD2A7C61F3A2A4C6EEC473543721C01550526E ====

Fabio Biondi, Europa Galante, Dorothea Roschmann, David Daniels - Pergolesi: Stabat Mater, Salve Regina (2006)

Thanks to the original releaser