Tags
Language
Tags

Fabio Biondi, Europa Galante - Handel: Poro, Rè dell'Indie (1994)

Posted By: ArlegZ
Fabio Biondi, Europa Galante - Handel: Poro, Rè dell'Indie (1994)

Fabio Biondi, Europa Galante - Handel: Poro, Rè dell'Indie (1994)
EAC | FLAC | Image (Cue & Log) ~ 308 Mb | Total time: 65:55+50:42+50:46 | Scans included
Classical | Label: Opus 111 ‎| OPS 30-113/115 | Recorded: 1995

"Poro, re dell'Indie" (HWV 28) is an opera seria in three acts by George Frideric Handel. The Italian-language libretto was adapted from Alessandro nell'Indie by Metastasio, and based on Alexander the Great's encounter with King Porus in 326 BC. The libretto had already been set to music by Leonardo Vinci in 1729 and by Antonio Vivaldi among others and was used as the text for more than sixty operas throughout the 18th century. The opera was first given at the King's Theatre in London on 2 February 1731 and on 15 further occasions. A run of 16 performances was a mark of success for the time as is the fact that the work was revived on 23 December 1731, and again in a revised form on 8 December 1736. It was also given in Hamburg and Brunswick.

Performer:
Poro - Gloria Banditelli
Cleofide - Rosana Bertini
Erissena - Bernarda Fink
Gandarte - Gérard Lesne
Alessandro Il Grande - Sandro Naglia
Timagene - Roberto Abbondanza
Europa Galante
Conductor - Fabio Biondi

Track List:
CD1:
01. Ouverture
02. Atto I. Recitativo: Fermatevi, compagni! (Poro, Gandarte)
03. Aria: È prezzo leggiero (Gandarte)
04. Recitativo: Guerrier, t'arresta (Poro, Timagene, Alessandro)
05. Aria: Vedrai con tuo periglio (Alessandro)
06. Recitativo: Oh sublime ardimento! (Alessandro, Erissena, Timagene)
07. Aria: Vil trofeo d'un alma imbelle (Alessandro)
08. Recitativo: Questo è Alessandro? (Erissena, Timagene)
09. Aria: Chi vive amante sai che delira (Erissena)
10. Recitativo: Perfidi! Ite di Poro a ricercar nel campo (Cleofide, Poro)
11. Aria: Se mai più sarò geloso (Poro)
12. Recitativo: Erissena, che veggo? (Cleofide, Poro, Erissena)
13. Aria: Se mai turbo il tuo riposo (Cleofide)
14. Recitativo: Cleofide và al campo (Erissena , Poro, Gandarte)
15. Aria Se possono tanto due luci Vezzose (Poro)
16. Recitativo: Dimmi: vedesti in sù gli opposti lidi (Erissena, Gandarte)
17. Aria: Compagni nell'amore se tolerar non sai (Erissena)
18. Recitativo: Ecco vien la cagion de' miei tormenti (Alessandro, Timagene)
19. Sinfonia
20. Recitativo: Ciò che t'offro (Cleofide, Alessandro)
21. Aria: Se amor a questo petto (Alessandro)
22. Recitativo: Lode agli Dei! (Poro, Cleofide)
23. Finale. Duetto: Se mai turbo (Poro, Cleofide)
CD2:
01. Atto II. Sinfonia
02. Recitativo: Signor, l'India festiva esulta meco (Cleofide, Alessandro, Timagene)
03. Sinfonia
04. Recitativo: Seguitemi, oh compagni! (Gandarte)
05. Duetto: Caro amico amplesso! (Cleofide, Poro)
06. Recitativo: Ah Ciel! viene il nemico (Cleofide, Poro)
07. Aria: D'un barbaro scortese (Alessandro)
08. Recitativo: Macedoni, alla reggia Cleofide (Cleofide, Poro, Timagene)
09. Aria: Digli ch'io son fedele (Cleofide)
10. Recitativo: Tenerezze ingegnose! (Poro, Timagene)
11. Aria: Senza procelle (Poro)
12. Recitativo: E tentò di svenarti? (Cleofide, Gandarte)
13. Aria: Se il Ciel mi divide (Cleofide)
14. Recitativo: Adorata Erissena (Erissena, Gandarte)
15. Aria: Se viver non poss'io (Gandarte)
16. Recitativo: E pur, chi'l crederia? (Erissena)
17. Aria: Di rendermi la calma prometti (Erissena)
CD3:
01. Atto III. Sinfonia
02. Recitativo: Erissena! (Poro, Erissena)
03. Aria: Risveglia lo sdegno (Poro)
04. Recitativo Ah! funesto comando! (Erissena, Cleofide)
05. Aria: Se troppo crede al ciglio (Cleofide)
06. Recitativo: Giunge Alessandro (Erissena, Alessandro)
07. Aria: Come il candore (Erissena)
08. Recitativo: Per qual via non pensata (Alessandro, Timagene)
09. Aria: Serbati a grandi imprese (Alessandro)
10. Recitativo: Ecco spezzato il solo filo (Poro, Gandarte)
11. Aria: Dov'è? (Poro)
12. Recitativo: Gandarte, in questo stato non lasciarlo (Erissena, Gandarte)
13. Aria: Mio ben, ricordati (Gandarte)
14. Recitativo: D'inaspettati eventi (Erissena)
15. Aria: Son confusa pastorella (Erissena)
16. Recitativo: Tu mi contrasti (Poro, Gandarte)
17. Aria: Spirto amato (Cleofide)
18. Recitativo: Come! Poro? (Cleofide, Alessandro, Poro, Cleofide, Gandarte)
19. Duetto: Caro, vieni (Cleofide, Poro)
20. Coro: Dopo tanto penare (Tutti)


Exact Audio Copy V1.3 from 2. September 2016

EAC extraction logfile from 20. July 2018, 19:28

Gloria Banditelli, Rossana Bertini, Bernarda Fink, Gerard Lesne, Sandro Naglia, Roberto Abbondanza; Fabio Biondi / Handel - Poro (Disc 1)

Used drive : ATAPI iHAS124 F Adapter: 1 ID: 0

Read mode : Secure
Utilize accurate stream : Yes
Defeat audio cache : Yes
Make use of C2 pointers : No

Read offset correction : 6
Overread into Lead-In and Lead-Out : No
Fill up missing offset samples with silence : Yes
Delete leading and trailing silent blocks : No
Null samples used in CRC calculations : Yes
Used interface : Native Win32 interface for Win NT & 2000

Used output format : User Defined Encoder
Selected bitrate : 1024 kBit/s
Quality : High
Add ID3 tag : No
Command line compressor : C:\Program Files (x86)\Exact Audio Copy\FLAC\FLAC.EXE
Additional command line options : -8 -V -T "TITLE=%title%" -T "ARTIST=%artist%" -T "ALBUMARTIST=%albumartist%" -T "ALBUM=%albumtitle%" -T "DATE=%year%" -T "TRACKNUMBER=%tracknr%" -T "TRACKTOTAL=%numtracks%" -T "GENRE=%genre%" -T "COMMENT=%comment%" -T "PERFORMER=%albuminterpret%" -T "COMPOSER=%composer%" %source% -o %dest%


TOC of the extracted CD

Track | Start | Length | Start sector | End sector
––––––––––––––––––––––––––––-
1 | 0:00.00 | 3:43.32 | 0 | 16756
2 | 3:43.32 | 1:50.61 | 16757 | 25067
3 | 5:34.18 | 3:54.69 | 25068 | 42686
4 | 9:29.12 | 2:01.66 | 42687 | 51827
5 | 11:31.03 | 4:36.25 | 51828 | 72552
6 | 16:07.28 | 0:35.12 | 72553 | 75189
7 | 16:42.40 | 5:50.25 | 75190 | 101464
8 | 22:32.65 | 0:47.10 | 101465 | 104999
9 | 23:20.00 | 3:43.18 | 105000 | 121742
10 | 27:03.18 | 1:42.52 | 121743 | 129444
11 | 28:45.70 | 1:25.25 | 129445 | 135844
12 | 30:11.20 | 1:05.65 | 135845 | 140784
13 | 31:17.10 | 6:56.20 | 140785 | 172004
14 | 38:13.30 | 1:06.47 | 172005 | 177001
15 | 39:20.02 | 4:55.31 | 177002 | 199157
16 | 44:15.33 | 0:57.55 | 199158 | 203487
17 | 45:13.13 | 3:53.35 | 203488 | 220997
18 | 49:06.48 | 0:16.17 | 220998 | 222214
19 | 49:22.65 | 0:57.55 | 222215 | 226544
20 | 50:20.45 | 3:57.23 | 226545 | 244342
21 | 54:17.68 | 5:18.05 | 244343 | 268197
22 | 59:35.73 | 0:32.60 | 268198 | 270657
23 | 60:08.58 | 5:44.60 | 270658 | 296517


Range status and errors

Selected range

Filename C:\EACRip\HANDEL\Handel - Poro (Fabio Biondi) (1994)\CD1\Handel - Poro (Disc 1) - Fabio Biondi.wav

Peak level 100.0 %
Extraction speed 9.4 X
Range quality 100.0 %
Test CRC C5597411
Copy CRC C5597411
Copy OK

No errors occurred


AccurateRip summary

Track 1 accurately ripped (confidence 11) [1BBCC41C] (AR v2)
Track 2 accurately ripped (confidence 10) [5619082E] (AR v2)
Track 3 accurately ripped (confidence 11) [42F8FE86] (AR v2)
Track 4 accurately ripped (confidence 10) [5F1A8735] (AR v2)
Track 5 accurately ripped (confidence 11) [E0FDC7BD] (AR v2)
Track 6 accurately ripped (confidence 10) [0ADFF492] (AR v2)
Track 7 accurately ripped (confidence 11) [E400A21D] (AR v2)
Track 8 accurately ripped (confidence 10) [ADF81F22] (AR v2)
Track 9 accurately ripped (confidence 11) [5633D8D5] (AR v2)
Track 10 accurately ripped (confidence 10) [0DC03CDE] (AR v2)
Track 11 accurately ripped (confidence 11) [25D18315] (AR v2)
Track 12 accurately ripped (confidence 10) [03D5B1A1] (AR v2)
Track 13 accurately ripped (confidence 11) [14EF1D0B] (AR v2)
Track 14 accurately ripped (confidence 10) [8C1CF48E] (AR v2)
Track 15 accurately ripped (confidence 11) [57361CED] (AR v2)
Track 16 accurately ripped (confidence 10) [7196ED97] (AR v2)
Track 17 accurately ripped (confidence 11) [F4AB0F7D] (AR v2)
Track 18 accurately ripped (confidence 10) [59A280F5] (AR v2)
Track 19 accurately ripped (confidence 11) [766399D3] (AR v2)
Track 20 accurately ripped (confidence 10) [F4F36226] (AR v2)
Track 21 accurately ripped (confidence 11) [CAD05B7A] (AR v2)
Track 22 accurately ripped (confidence 10) [70FF086C] (AR v2)
Track 23 accurately ripped (confidence 11) [D2BC559A] (AR v2)

All tracks accurately ripped

End of status report

–– CUETools DB Plugin V2.1.6

[CTDB TOCID: InfZp4Pkaum3kWyxsTNASR4uD1E-] found
Submit result: InfZp4Pkaum3kWyxsTNASR4uD1E- has been confirmed
Track | CTDB Status
1 | (11/11) Accurately ripped
2 | (11/11) Accurately ripped
3 | (11/11) Accurately ripped
4 | (11/11) Accurately ripped
5 | (11/11) Accurately ripped
6 | (11/11) Accurately ripped
7 | (11/11) Accurately ripped
8 | (11/11) Accurately ripped
9 | (11/11) Accurately ripped
10 | (11/11) Accurately ripped
11 | (11/11) Accurately ripped
12 | (11/11) Accurately ripped
13 | (11/11) Accurately ripped
14 | (11/11) Accurately ripped
15 | (11/11) Accurately ripped
16 | (11/11) Accurately ripped
17 | (11/11) Accurately ripped
18 | (11/11) Accurately ripped
19 | (11/11) Accurately ripped
20 | (11/11) Accurately ripped
21 | (11/11) Accurately ripped
22 | (11/11) Accurately ripped
23 | (11/11) Accurately ripped


==== Log checksum 6059390A489496B0E3CE10401D306070B57112F660C5C81D10014527466E59D7 ====


Exact Audio Copy V1.3 from 2. September 2016

EAC extraction logfile from 20. July 2018, 19:59

Gloria Banditelli, Rossana Bertini, Bernarda Fink, Gerard Lesne, Sandro Naglia, Roberto Abbondanza; Fabio Biondi / Handel - Poro (Disc 2)

Used drive : ATAPI iHAS124 F Adapter: 1 ID: 0

Read mode : Secure
Utilize accurate stream : Yes
Defeat audio cache : Yes
Make use of C2 pointers : No

Read offset correction : 6
Overread into Lead-In and Lead-Out : No
Fill up missing offset samples with silence : Yes
Delete leading and trailing silent blocks : No
Null samples used in CRC calculations : Yes
Used interface : Native Win32 interface for Win NT & 2000

Used output format : User Defined Encoder
Selected bitrate : 1024 kBit/s
Quality : High
Add ID3 tag : No
Command line compressor : C:\Program Files (x86)\Exact Audio Copy\FLAC\FLAC.EXE
Additional command line options : -8 -V -T "TITLE=%title%" -T "ARTIST=%artist%" -T "ALBUMARTIST=%albumartist%" -T "ALBUM=%albumtitle%" -T "DATE=%year%" -T "TRACKNUMBER=%tracknr%" -T "TRACKTOTAL=%numtracks%" -T "GENRE=%genre%" -T "COMMENT=%comment%" -T "PERFORMER=%albuminterpret%" -T "COMPOSER=%composer%" %source% -o %dest%


TOC of the extracted CD

Track | Start | Length | Start sector | End sector
––––––––––––––––––––––––––––-
1 | 0:00.00 | 1:26.25 | 0 | 6474
2 | 1:26.25 | 0:52.08 | 6475 | 10382
3 | 2:18.33 | 1:09.64 | 10383 | 15621
4 | 3:28.22 | 2:09.03 | 15622 | 25299
5 | 5:37.25 | 2:27.32 | 25300 | 36356
6 | 8:04.57 | 2:07.55 | 36357 | 45936
7 | 10:12.37 | 3:40.43 | 45937 | 62479
8 | 13:53.05 | 0:44.70 | 62480 | 65849
9 | 14:38.00 | 5:43.67 | 65850 | 91641
10 | 20:21.67 | 1:12.05 | 91642 | 97046
11 | 21:33.72 | 8:42.58 | 97047 | 136254
12 | 30:16.55 | 3:26.68 | 136255 | 151772
13 | 33:43.48 | 6:23.54 | 151773 | 180551
14 | 40:07.27 | 0:41.63 | 180552 | 183689
15 | 40:49.15 | 5:54.00 | 183690 | 210239
16 | 46:43.15 | 0:21.00 | 210240 | 211814
17 | 47:04.15 | 3:38.30 | 211815 | 228194


Range status and errors

Selected range

Filename C:\EACRip\HANDEL\Handel - Poro (Fabio Biondi) (1994)\CD2\Handel - Poro (Disc 2) - Fabio Biondi.wav

Peak level 100.0 %
Extraction speed 8.2 X
Range quality 100.0 %
Test CRC 017C7670
Copy CRC 017C7670
Copy OK

No errors occurred


AccurateRip summary

Track 1 accurately ripped (confidence 11) [B17B3E84] (AR v2)
Track 2 accurately ripped (confidence 10) [E7AEBA3F] (AR v2)
Track 3 accurately ripped (confidence 11) [6CEEE958] (AR v2)
Track 4 accurately ripped (confidence 10) [EE124A18] (AR v2)
Track 5 accurately ripped (confidence 11) [AD7FE963] (AR v2)
Track 6 accurately ripped (confidence 10) [6CDF0BCF] (AR v2)
Track 7 accurately ripped (confidence 11) [D3038D3F] (AR v2)
Track 8 accurately ripped (confidence 10) [4D094D0E] (AR v2)
Track 9 accurately ripped (confidence 11) [57E1B807] (AR v2)
Track 10 accurately ripped (confidence 10) [C9301313] (AR v2)
Track 11 accurately ripped (confidence 11) [8B0C2B93] (AR v2)
Track 12 accurately ripped (confidence 10) [2EC4FD2C] (AR v2)
Track 13 accurately ripped (confidence 11) [E02DE790] (AR v2)
Track 14 accurately ripped (confidence 10) [2445D424] (AR v2)
Track 15 accurately ripped (confidence 11) [5BECEB0F] (AR v2)
Track 16 accurately ripped (confidence 10) [CA4EB3DF] (AR v2)
Track 17 accurately ripped (confidence 11) [16BEDFE2] (AR v2)

All tracks accurately ripped

End of status report

–– CUETools DB Plugin V2.1.6

[CTDB TOCID: NijX9zDxbkYJ5x86qWNiXPTmoLY-] found
Submit result: NijX9zDxbkYJ5x86qWNiXPTmoLY- has been confirmed
Track | CTDB Status
1 | (11/11) Accurately ripped
2 | (11/11) Accurately ripped
3 | (11/11) Accurately ripped
4 | (11/11) Accurately ripped
5 | (11/11) Accurately ripped
6 | (11/11) Accurately ripped
7 | (11/11) Accurately ripped
8 | (11/11) Accurately ripped
9 | (11/11) Accurately ripped
10 | (11/11) Accurately ripped
11 | (11/11) Accurately ripped
12 | (11/11) Accurately ripped
13 | (11/11) Accurately ripped
14 | (11/11) Accurately ripped
15 | (11/11) Accurately ripped
16 | (11/11) Accurately ripped
17 | (11/11) Accurately ripped


==== Log checksum 2447B8DBE375739FC9B52AA1508E998E82BC40566942409696C5786EE8895051 ====


Exact Audio Copy V1.3 from 2. September 2016

EAC extraction logfile from 20. July 2018, 20:37

Gloria Banditelli, Rossana Bertini, Bernarda Fink, Gerard Lesne, Sandro Naglia, Roberto Abbondanza; Fabio Biondi / Handel - Poro (Disc 3)

Used drive : ATAPI iHAS124 F Adapter: 1 ID: 0

Read mode : Secure
Utilize accurate stream : Yes
Defeat audio cache : Yes
Make use of C2 pointers : No

Read offset correction : 6
Overread into Lead-In and Lead-Out : No
Fill up missing offset samples with silence : Yes
Delete leading and trailing silent blocks : No
Null samples used in CRC calculations : Yes
Used interface : Native Win32 interface for Win NT & 2000

Used output format : User Defined Encoder
Selected bitrate : 1024 kBit/s
Quality : High
Add ID3 tag : No
Command line compressor : C:\Program Files (x86)\Exact Audio Copy\FLAC\FLAC.EXE
Additional command line options : -8 -V -T "TITLE=%title%" -T "ARTIST=%artist%" -T "ALBUMARTIST=%albumartist%" -T "ALBUM=%albumtitle%" -T "DATE=%year%" -T "TRACKNUMBER=%tracknr%" -T "TRACKTOTAL=%numtracks%" -T "GENRE=%genre%" -T "COMMENT=%comment%" -T "PERFORMER=%albuminterpret%" -T "COMPOSER=%composer%" %source% -o %dest%


TOC of the extracted CD

Track | Start | Length | Start sector | End sector
––––––––––––––––––––––––––––-
1 | 0:00.00 | 1:19.35 | 0 | 5959
2 | 1:19.35 | 1:14.15 | 5960 | 11524
3 | 2:33.50 | 2:40.63 | 11525 | 23587
4 | 5:14.38 | 1:38.45 | 23588 | 30982
5 | 6:53.08 | 5:46.20 | 30983 | 56952
6 | 12:39.28 | 1:23.40 | 56953 | 63217
7 | 14:02.68 | 2:51.67 | 63218 | 76109
8 | 16:54.60 | 1:06.43 | 76110 | 81102
9 | 18:01.28 | 5:10.42 | 81103 | 104394
10 | 23:11.70 | 2:01.05 | 104395 | 113474
11 | 25:13.00 | 3:39.33 | 113475 | 129932
12 | 28:52.33 | 0:23.27 | 129933 | 131684
13 | 29:15.60 | 3:45.23 | 131685 | 148582
14 | 33:01.08 | 0:22.07 | 148583 | 150239
15 | 33:23.15 | 8:01.73 | 150240 | 186387
16 | 41:25.13 | 2:00.00 | 186388 | 195387
17 | 43:25.13 | 2:20.72 | 195388 | 205959
18 | 45:46.10 | 1:51.45 | 205960 | 214329
19 | 47:37.55 | 1:49.03 | 214330 | 222507
20 | 49:26.58 | 1:18.07 | 222508 | 228364


Range status and errors

Selected range

Filename C:\EACRip\HANDEL\Handel - Poro (Fabio Biondi) (1994)\CD3\Handel - Poro (Disc 3) - Fabio Biondi.wav

Peak level 100.0 %
Extraction speed 8.2 X
Range quality 100.0 %
Test CRC A999B4E1
Copy CRC A999B4E1
Copy OK

No errors occurred


AccurateRip summary

Track 1 accurately ripped (confidence 11) [4A21A5AB] (AR v2)
Track 2 accurately ripped (confidence 10) [AE3EC69F] (AR v2)
Track 3 accurately ripped (confidence 11) [F2ABCBBD] (AR v2)
Track 4 accurately ripped (confidence 10) [AD755E48] (AR v2)
Track 5 accurately ripped (confidence 11) [0D130343] (AR v2)
Track 6 accurately ripped (confidence 10) [8301A50F] (AR v2)
Track 7 accurately ripped (confidence 11) [E13F3053] (AR v2)
Track 8 accurately ripped (confidence 10) [D9C867A1] (AR v2)
Track 9 accurately ripped (confidence 11) [BA835BA4] (AR v2)
Track 10 accurately ripped (confidence 10) [021FA7CA] (AR v2)
Track 11 accurately ripped (confidence 11) [BF4B0804] (AR v2)
Track 12 accurately ripped (confidence 10) [917F7128] (AR v2)
Track 13 accurately ripped (confidence 11) [DECC1F7B] (AR v2)
Track 14 accurately ripped (confidence 10) [36880F21] (AR v2)
Track 15 accurately ripped (confidence 11) [CB438042] (AR v2)
Track 16 accurately ripped (confidence 10) [503F6CE6] (AR v2)
Track 17 accurately ripped (confidence 11) [85347961] (AR v2)
Track 18 accurately ripped (confidence 10) [22251DBB] (AR v2)
Track 19 accurately ripped (confidence 11) [D7DCAE58] (AR v2)
Track 20 accurately ripped (confidence 11) [818D8AE3] (AR v2)

All tracks accurately ripped

End of status report

–– CUETools DB Plugin V2.1.6

[CTDB TOCID: 3udbjrqC.OMrIKjepErTt2Z1tWI-] found
Submit result: 3udbjrqC.OMrIKjepErTt2Z1tWI- has been confirmed
Track | CTDB Status
1 | (12/12) Accurately ripped
2 | (12/12) Accurately ripped
3 | (12/12) Accurately ripped
4 | (12/12) Accurately ripped
5 | (12/12) Accurately ripped
6 | (12/12) Accurately ripped
7 | (12/12) Accurately ripped
8 | (12/12) Accurately ripped
9 | (12/12) Accurately ripped
10 | (12/12) Accurately ripped
11 | (12/12) Accurately ripped
12 | (12/12) Accurately ripped
13 | (12/12) Accurately ripped
14 | (12/12) Accurately ripped
15 | (12/12) Accurately ripped
16 | (12/12) Accurately ripped
17 | (12/12) Accurately ripped
18 | (12/12) Accurately ripped
19 | (12/12) Accurately ripped
20 | (12/12) Accurately ripped


==== Log checksum 64BF2B9ACDED10E3495A1E9D423A9DB673A9D44CC27A5132F6CBEE90C9D9D974 ====

Fabio Biondi, Europa Galante - Handel: Poro, Rè dell'Indie (1994)

Thanks to the original releaser