Tags
Language
Tags

Fabio Biondi, Europa Galante - Antonio Vivaldi: Concerti per violino VI 'La boemia' (2018)

Posted By: ArlegZ
Fabio Biondi, Europa Galante - Antonio Vivaldi: Concerti per violino VI 'La boemia' (2018)

Fabio Biondi, Europa Galante - Antonio Vivaldi: Concerti per violino VI 'La boemia' (2018)
EAC | FLAC | Image (Cue & Log) ~ 379 Mb | Total time: 68:45 | Scans included
Classical | Label: Naïve | # OP 30572 | Recorded: 2017

Vivaldi wrote hundreds of violin concertos, yet even this tiny sample of six, written during the composer’s visit to Prague between 1730 and 1731, demonstrates in every movement his genius of harmonic and dramatic surprise. Each concerto is startlingly original, from the opening movement of the E Minor RV 278 that pits daring solo passages against a hypnotic, pulsing orchestra, while the same concerto’s Largo even feels modern in its angularity. A more familiar Vivaldi can be heard in the C Major RV 186, with its Italianate innocence and winsome middle Largo. But whatever the composer’s mood, Fabio Biondi and Europa Galante thrill to his ingenuity at every step.

Performer:
Europa Galante
Fabio Biondi, violino e direzione

Track List:
Violin Concerto in F Major, RV 282
01. I. Allegro poco
02. II. Largo
03. III. Presto
Violin Concerto in E Minor, RV 278
04. I. Allegro molto
05. II. Largo
06. III. Allegro
Violin Concerto in B-Flat Major, RV 380
07. I. Andante moto
08. II. Andante
09. III. Allegro
Violin Concerto in C Major, RV 186
10. I. Allegro
11. II. Largo
12. III. Allegro
Violin Concerto in F Major, RV 288
13. I. Allegro ma poco
14. II. Largo
15. III. Allegro
Violin Concerto in G Minor, RV 330
16. I. Allegro non molto
17. II. Larghetto
18. III. Allegro


Exact Audio Copy V1.3 from 2. September 2016

EAC extraction logfile from 12. April 2020, 13:11

Fabio Biondi / Vivaldi - Concerti per violino VI 'La boemia'

Used drive : ATAPI iHAS124 F Adapter: 1 ID: 0

Read mode : Secure
Utilize accurate stream : Yes
Defeat audio cache : Yes
Make use of C2 pointers : No

Read offset correction : 6
Overread into Lead-In and Lead-Out : No
Fill up missing offset samples with silence : Yes
Delete leading and trailing silent blocks : No
Null samples used in CRC calculations : Yes
Used interface : Native Win32 interface for Win NT & 2000

Used output format : User Defined Encoder
Selected bitrate : 1024 kBit/s
Quality : High
Add ID3 tag : No
Command line compressor : C:\Program Files (x86)\Exact Audio Copy\FLAC\FLAC.EXE
Additional command line options : -6 -V -T "ARTIST=%artist%" -T "TITLE=%title%" -T "ALBUM=%albumtitle%" -T "DATE=%year%" -T "TRACKNUMBER=%tracknr%" -T "GENRE=%genre%" -T "COMMENT=%comment%" -T "BAND=%albuminterpret%" -T "ALBUMARTIST=%albuminterpret%" -T "COMPOSER=%composer%" %haslyrics%–tag-from-file=LYRICS="%lyricsfile%"%haslyrics% -T "DISCNUMBER=%cdnumber%" -T "TOTALDISCS=%totalcds%" -T "TOTALTRACKS=%numtracks%" %hascover%–picture="%coverfile%"%hascover% %source% -o %dest%


TOC of the extracted CD

Track | Start | Length | Start sector | End sector
––––––––––––––––––––––––––––-
1 | 0:00.00 | 5:17.66 | 0 | 23840
2 | 5:17.66 | 3:03.47 | 23841 | 37612
3 | 8:21.38 | 4:15.47 | 37613 | 56784
4 | 12:37.10 | 6:23.63 | 56785 | 85572
5 | 19:00.73 | 3:48.07 | 85573 | 102679
6 | 22:49.05 | 4:30.57 | 102680 | 122986
7 | 27:19.62 | 5:17.25 | 122987 | 146786
8 | 32:37.12 | 3:46.29 | 146787 | 163765
9 | 36:23.41 | 3:18.67 | 163766 | 178682
10 | 39:42.33 | 3:24.28 | 178683 | 194010
11 | 43:06.61 | 2:53.15 | 194011 | 207000
12 | 46:00.01 | 2:29.48 | 207001 | 218223
13 | 48:29.49 | 3:13.49 | 218224 | 232747
14 | 51:43.23 | 3:44.29 | 232748 | 249576
15 | 55:27.52 | 2:41.74 | 249577 | 261725
16 | 58:09.51 | 3:59.13 | 261726 | 279663
17 | 62:08.64 | 3:30.62 | 279664 | 295475
18 | 65:39.51 | 3:05.27 | 295476 | 309377


Range status and errors

Selected range

Filename C:\EACRip\RÓŻNE\Vivaldi - Concerti per violino VI 'La boemia' (Fabio Biondi) (2018)\Vivaldi - Concerti per violino VI 'La boemia' - Fabio Biondi.wav

Peak level 98.0 %
Extraction speed 8.7 X
Range quality 100.0 %
Test CRC F615B444
Copy CRC F615B444
Copy OK

No errors occurred


AccurateRip summary

Track 1 accurately ripped (confidence 8) [E5DB5C0C] (AR v2)
Track 2 accurately ripped (confidence 8) [4D2CF50F] (AR v2)
Track 3 accurately ripped (confidence 8) [AE5BF7AE] (AR v2)
Track 4 accurately ripped (confidence 7) [CF852CC6] (AR v2)
Track 5 accurately ripped (confidence 7) [DF663BE2] (AR v2)
Track 6 accurately ripped (confidence 7) [E144D81A] (AR v2)
Track 7 accurately ripped (confidence 8) [68F2B802] (AR v2)
Track 8 accurately ripped (confidence 8) [2AFA79E5] (AR v2)
Track 9 accurately ripped (confidence 8) [CC58A946] (AR v2)
Track 10 accurately ripped (confidence 8) [67EFCA0A] (AR v2)
Track 11 accurately ripped (confidence 8) [27965D31] (AR v2)
Track 12 accurately ripped (confidence 8) [ABF985D8] (AR v2)
Track 13 accurately ripped (confidence 8) [858E3688] (AR v2)
Track 14 accurately ripped (confidence 8) [B6FE7655] (AR v2)
Track 15 accurately ripped (confidence 8) [DA6FC2A8] (AR v2)
Track 16 accurately ripped (confidence 8) [75D09EB4] (AR v2)
Track 17 accurately ripped (confidence 8) [46272947] (AR v2)
Track 18 accurately ripped (confidence 8) [7C1EFF24] (AR v2)

All tracks accurately ripped

End of status report

–– CUETools DB Plugin V2.1.6

[CTDB TOCID: CeG95T2FiCEnAX7gq8HPqM1ktjw-] found
Submit result: CeG95T2FiCEnAX7gq8HPqM1ktjw- has been confirmed
Track | CTDB Status
1 | (26/26) Accurately ripped
2 | (26/26) Accurately ripped
3 | (26/26) Accurately ripped
4 | (26/26) Accurately ripped
5 | (26/26) Accurately ripped
6 | (26/26) Accurately ripped
7 | (26/26) Accurately ripped
8 | (26/26) Accurately ripped
9 | (26/26) Accurately ripped
10 | (26/26) Accurately ripped
11 | (26/26) Accurately ripped
12 | (26/26) Accurately ripped
13 | (26/26) Accurately ripped
14 | (26/26) Accurately ripped
15 | (26/26) Accurately ripped
16 | (26/26) Accurately ripped
17 | (26/26) Accurately ripped
18 | (26/26) Accurately ripped


==== Log checksum E2D25B44FA20773A3A78238E71485076DDA13303CABF76A2F9D9577B0AD9771D ====


Fabio Biondi, Europa Galante - Antonio Vivaldi: Concerti per violino VI 'La boemia' (2018)

Thanks to the original releaser