Tags
Language
Tags

Fabio Biondi, Stuttgarter Kammerorchester - Francesco Feo: San Francesco di Sales (2018)

Posted By: ArlegZ
Fabio Biondi, Stuttgarter Kammerorchester - Francesco Feo: San Francesco di Sales (2018)

Fabio Biondi, Stuttgarter Kammerorchester - Francesco Feo: San Francesco di Sales (2018)
EAC | FLAC | Image (Cue & Log) ~ 587 Mb | Total time: 75:11+62:41 | Scans included
Classical | Label: Glossa | # GCD 923409 | Recorded: 2017

Fabio Biondi’s immense curiosity for characterful music – especially of forgotten scores from the Baroque – yields another fabulous surprise with Francesco Feo’s oratorio San Francesco di Sales. Feo’s reputation is at last starting to wax after having waned dramatically in the nineteenth century and thenceforward: in his own age he was compared very highly with Bach and Handel, and Charles Burney was moved to describe his vocal music as being “full of fire and invention and force in the melody and expression of the words”; Feo was also a boon companion of Pergolesi. He wrote both operas (such as Siface – which had a libretto by Metastasio) and church music, with compositions which demanded significant vocal virtuosity from his performers.
San Francesco di Sales: apostolo del Chablais is a set of reflections and imagery on the work of this inspirational Catholic Bishop of Geneva from the turn of the seventeenth century, and the oratorio probably saw the light of day in 1734.
This new release, further evidence of Glossa’scommitment to the music of the Neapolitan Baroque, presents Fabio Biondi directing the highly-versatile forces of the Stuttgarter Kammerorchester and four of today’s brightest and most stylish voices as the oratorio’s soloists: sopranos Monica Piccinini and Roberta Mameli, contralto Delphine Galou, and bass Luca Tittoto. Ample opportunity is also provided in Feo’s score for instrumental virtuosity, and Biondi’s own abundant violinistic flair is much to the fore here.

Performer:
Angelo: Monica Piccinini, soprano
Eresia: Roberta Mameli, soprano
San Francesco: Delphine Galou, alto
Inganno: Luca Tittoto, bass
Stuttgarter Kammerorchester
Fabio Biondi, violin & direction

Track List:
Francesco Feo (1691-1761)
CD1:
PARTE PRIMA
01 Sinfonia
02 Recitativo: Eccoci giunti al fin (Angelo, San Francesco)
03 Aria: Nel verno più severo (Angelo)
04 Recitativo: Colla celeste guida, Signor (San Francesco)
05 Aria: Queste dolanti lagrime (San Francesco)
06 Recitativo: E quai pensier funesti (Inganno, Eresia)
07 Aria: Già colla pallid’ ombra (Eresia)
08 Recitativo: E puoi temer (Inganno)
09 Aria: Questo che spirano (Inganno)
10 Recitativo: Vedi, Francesco (Angelo, San Francesco, Eresia, Inganno)
11 Aria: Deponi un tanto orgoglio (Angelo)
12 Recitativo: E tu, che fai (San Francesco)
13 Aria: Tu serbi accolto (San Francesco)
14 Recitativo: E chi sei tu (Eresia, San Francesco, Inganno)
15 Aria: Se dalla chara fonte (Eresia)
16 Recitativo: Se che gli stessi (San Francesco)
17 Aria: Tu sei la nube impura (San Francesco)
18 Recitativo: E qualia noi d’avante (San Francesco, Angelo)
19 Aria: Quando più s’alza (Angelo)
20 Recitativo, a4, Coro: Tu me paventa intanto (Inganno, Eresia, San Francesco, Angelo)
CD2:
PARTE SECONDA
01 Recitativo: Padre, ravvisi come di Francesco (Eresia, Inganno)
02 Aria: Tutte dell’Erebo (Inganno)
03 Recitativo: Se già disperi, oh Dio (Eresia, Inganno, Angelo)
04 Aria: Serbi l’ardire istesso (Angelo)
05 Recitativo: O Dio delle vendette (San Francesco)
06 Aria: Sommo Dio, dal ciel discenda (San Francesco)
07 Recitativo: Oh come lieto (Angelo, San Francesco)
08 Aria: Con la virtude istessa (Angelo)
09 Recitativo: Ch’il crederebbe mai (Inganno, San Francesco)
10 Aria: Pallid’ognora in volto (Eresia)
11 Recitativo: Empii, conosco il vostro reo (San Francesco, Eresia)
12 Aria: Intendi i sensi miei (San Francesco)
13 Recitativo: Tu colle fole tue (Inganno)
14 Aria: Come stridente fulmine (Inganno)
15 Recitativo: Quale imrovvisa luce (Eresia, Inganno, Angelo)
16 Aria: Voi dell’eterno pianto (Angelo)
17 Recitativo: Noi fuggiremo (Inganno, San Francesco)
18 Coro: Già l’Eresia (Coro)


Exact Audio Copy V1.3 from 2. September 2016

EAC extraction logfile from 12. March 2021, 23:14

Fabio Biondi, Stuttgarter Kammerorchester / Feo - San Francesco di Sales (Parte Prima)

Used drive : HL-DT-STDVDRAM GH24NS95 Adapter: 1 ID: 0

Read mode : Secure
Utilize accurate stream : Yes
Defeat audio cache : Yes
Make use of C2 pointers : No

Read offset correction : 6
Overread into Lead-In and Lead-Out : No
Fill up missing offset samples with silence : Yes
Delete leading and trailing silent blocks : No
Null samples used in CRC calculations : Yes
Used interface : Native Win32 interface for Win NT & 2000

Used output format : User Defined Encoder
Selected bitrate : 768 kBit/s
Quality : High
Add ID3 tag : No
Command line compressor : C:\Program Files\Exact Audio Copy\FLAC\FLAC.EXE
Additional command line options : -6 -V -T "ARTIST=%artist%" -T "TITLE=%title%" -T "ALBUM=%albumtitle%" -T "DATE=%year%" -T "TRACKNUMBER=%tracknr%" -T "GENRE=%genre%" -T "COMMENT=%comment%" -T "BAND=%albuminterpret%" -T "ALBUMARTIST=%albuminterpret%" -T "COMPOSER=%composer%" %haslyrics%–tag-from-file=LYRICS="%lyricsfile%"%haslyrics% -T "DISCNUMBER=%cdnumber%" -T "TOTALDISCS=%totalcds%" -T "TOTALTRACKS=%numtracks%" %hascover%–picture="%coverfile%"%hascover% %source% -o %dest%


TOC of the extracted CD

Track | Start | Length | Start sector | End sector
––––––––––––––––––––––––––––-
1 | 0:00.00 | 4:17.11 | 0 | 19285
2 | 4:17.11 | 3:04.13 | 19286 | 33098
3 | 7:21.24 | 7:22.14 | 33099 | 66262
4 | 14:43.38 | 0:56.28 | 66263 | 70490
5 | 15:39.66 | 6:10.39 | 70491 | 98279
6 | 21:50.30 | 1:16.60 | 98280 | 104039
7 | 23:07.15 | 5:15.73 | 104040 | 127737
8 | 28:23.13 | 1:05.11 | 127738 | 132623
9 | 29:28.24 | 6:32.20 | 132624 | 162043
10 | 36:00.44 | 2:10.72 | 162044 | 171865
11 | 38:11.41 | 7:38.12 | 171866 | 206227
12 | 45:49.53 | 0:35.57 | 206228 | 208909
13 | 46:25.35 | 3:51.14 | 208910 | 226248
14 | 50:16.49 | 1:45.69 | 226249 | 234192
15 | 52:02.43 | 5:31.07 | 234193 | 259024
16 | 57:33.50 | 0:47.08 | 259025 | 262557
17 | 58:20.58 | 5:02.03 | 262558 | 285210
18 | 63:22.61 | 0:49.29 | 285211 | 288914
19 | 64:12.15 | 7:14.41 | 288915 | 321505
20 | 71:26.56 | 3:42.58 | 321506 | 338213


Range status and errors

Selected range

Filename C:\Program Files\Exact Audio Copy\Fabio Biondi - Feo - San Francesco di Sales (Parte Prima).wav

Peak level 90.3 %
Extraction speed 2.1 X
Range quality 99.9 %
Test CRC 9B2E6668
Copy CRC 9B2E6668
Copy OK

No errors occurred

End of status report


Exact Audio Copy V1.3 from 2. September 2016

EAC extraction logfile from 13. March 2021, 0:04

Fabio Biondi, Stuttgarter Kammerorchester / Feo - San Francesco di Sales (Parte Seconda)

Used drive : HL-DT-STDVDRAM GH24NS95 Adapter: 1 ID: 0

Read mode : Secure
Utilize accurate stream : Yes
Defeat audio cache : Yes
Make use of C2 pointers : No

Read offset correction : 6
Overread into Lead-In and Lead-Out : No
Fill up missing offset samples with silence : Yes
Delete leading and trailing silent blocks : No
Null samples used in CRC calculations : Yes
Used interface : Native Win32 interface for Win NT & 2000

Used output format : User Defined Encoder
Selected bitrate : 768 kBit/s
Quality : High
Add ID3 tag : No
Command line compressor : C:\Program Files\Exact Audio Copy\FLAC\FLAC.EXE
Additional command line options : -6 -V -T "ARTIST=%artist%" -T "TITLE=%title%" -T "ALBUM=%albumtitle%" -T "DATE=%year%" -T "TRACKNUMBER=%tracknr%" -T "GENRE=%genre%" -T "COMMENT=%comment%" -T "BAND=%albuminterpret%" -T "ALBUMARTIST=%albuminterpret%" -T "COMPOSER=%composer%" %haslyrics%–tag-from-file=LYRICS="%lyricsfile%"%haslyrics% -T "DISCNUMBER=%cdnumber%" -T "TOTALDISCS=%totalcds%" -T "TOTALTRACKS=%numtracks%" %hascover%–picture="%coverfile%"%hascover% %source% -o %dest%


TOC of the extracted CD

Track | Start | Length | Start sector | End sector
––––––––––––––––––––––––––––-
1 | 0:00.00 | 1:13.14 | 0 | 5488
2 | 1:13.14 | 5:38.64 | 5489 | 30902
3 | 6:52.03 | 2:01.26 | 30903 | 40003
4 | 8:53.29 | 5:44.29 | 40004 | 65832
5 | 14:37.58 | 1:06.72 | 65833 | 70854
6 | 15:44.55 | 6:38.23 | 70855 | 100727
7 | 22:23.03 | 1:29.33 | 100728 | 107435
8 | 23:52.36 | 5:30.44 | 107436 | 132229
9 | 29:23.05 | 1:39.72 | 132230 | 139726
10 | 31:03.02 | 7:18.47 | 139727 | 172623
11 | 38:21.49 | 2:48.07 | 172624 | 185230
12 | 41:09.56 | 6:06.17 | 185231 | 212697
13 | 47:15.73 | 0:29.07 | 212698 | 214879
14 | 47:45.05 | 4:57.62 | 214880 | 237216
15 | 52:42.67 | 1:43.60 | 237217 | 245001
16 | 54:26.52 | 6:25.34 | 245002 | 273910
17 | 60:52.11 | 0:49.25 | 273911 | 277610
18 | 61:41.36 | 0:57.72 | 277611 | 281957


Range status and errors

Selected range

Filename C:\Program Files\Exact Audio Copy\Fabio Biondi - Feo - San Francesco di Sales (Parte Seconda).wav

Peak level 94.1 %
Extraction speed 1.8 X
Range quality 100.0 %
Test CRC 5E65672B
Copy CRC 5E65672B
Copy OK

No errors occurred

End of status report

Fabio Biondi, Stuttgarter Kammerorchester - Francesco Feo: San Francesco di Sales (2018)

Thanks to the original releaser