Tags
Language
Tags

Fabio Neri, Orchestra dei giovani del Conservatorio "Claudio Monteverdi" di Bolzano - Cimarosa: Amor rende sagace (1992)

Posted By: ArlegZ
Fabio Neri, Orchestra dei giovani del Conservatorio "Claudio Monteverdi" di Bolzano - Cimarosa: Amor rende sagace (1992)

Fabio Neri, Orchestra dei giovani del Conservatorio "Claudio Monteverdi" di Bolzano - Cimarosa: Amor rende sagace (1992)
EAC | FLAC | Image (Cue & Log) ~ 532 Mb | Total time: 64:03+43:11 | Scans included
Classical | Label: Bongiovanni | GB 2126/27-2 | Recorded: 1991

Amor rende sagace è il tipico caso di settecentesca strategia promozionale. L' operina della ditta Bertati/Cimarosa nacque per sfruttare lo storico successo ottenuto qualche mese prima dal Matrimonio segreto (fu bissata per intera la sera della prima), di cui riflette qualche soluzione espressiva ma non l' inimitabile impasto di comicità e patetismo. Di ciò è consapevole il poeta che così si scusa nella premessa al libretto: "dove gioca in principalità la buffoneria, non può aver gran luogo quello che interessa il cuore". In effetti, dal punto di vista strutturale e narrativo Amore rende sagace, titolo di felice sintesi comportamentale, scorre entro binari prevedibili e solerti: non frenato da smancerie sentimentali. Il canovaccio è presto detto. La capricciosa Bellina è stata promessa dal padre all' amico Ambrogio: solo col matrimonio obbligato erediterà il cospicuo patrimonio. Naturalmente Bellina ha un pretendente squattrinato (Riccardo), e scimunito al punto di rinunciare a lei pur di non privarla della fortuna di famiglia, nonché un gruppo di amici, tra cui il notaio Riccardo, che sono dalla sua parte. Così per scoraggiare l' ingenuo Ambrogio, la ragazza si finge pericolosamente pazza. Dopo alcune prove di follia, il disorientato mercante rinuncia alle pretese sulla bizzarra fanciulla. Quando capirà di essere stato raggirato, si taciterà con un quinto dell' eredità, prima di unirsi al coro di giubilo e all' invito conviviale conclusivo.

Performer:
Ambrogio - Enzo Dara
Bellina - Gemma Bertagnolli
Riccardo - Maurizio Dalena
Dottor Graziano - Mattia Nicolini
Cecilia - Cristina Mantese
Violetta - Daniela Bruera
Orchestra dei giovani del Conservatorio "Claudio Monteverdi" di Bolzano
Conductor - Fabio Neri

Track List:
CD1:
01. Sinfonia
02. Scena: Io già ho letto (Graziano, Cecilia, Bellina, Riccardo)
03. Recitativo: Oh cospetto di Bacco! (Graziano, Cecilia, Bellina)
04. Duetto: Ecco adesso finita (Riccardo, Bellina)
05. Recitativo: Fermatevi, vi dico (Bellina, Riccardo)
06. Aria: Nel vedervi a un altro in braccio (Riccardo)
07. Recitativo: La sua delicatezza (Bellina, Violetta)
08. Scena ed aria:Oh, oh! gente di casa… (Ambrogio)
09. Scena: Servo umilissimo (Ambrogio, Violetta)
10. Scana: Chi è questo bell'umore? (Graziano, Cecilia, Ambrogio)
11. Recitativo: Bella davver! (Ambrogio)
12. Duetto: Il vostro sposo, o bella (Ambrogio, Bellina)
13. Recitativo: Ma, gioia mia (Ambrogio, Bellina)
14. Aria: Son allegra, son contenta (Bellina)
15. Recitativo: Eh, io credo d'averla (Ambrogio, Cecilia)
16. Duetto: Vi sarebbe una ragazza bella (Cecilia, Ambrogio)
17. Recitativo: Io ve l'ho detto già (Riccardo, Bellina)
18. Duetto: Un palpito atroce (Bellina, Riccardo)
CD2:
01. Recitativo: Servo, servo, signore (Ambrogio, Riccardo, Bellina)
02. Aria: Perplesso, oimé, qui resto (Ambrogio)
03. Recitativo: Ah, ah! che ve ne par? (Graziano, Cecilia)
04. Aria: Io son dottor di legge (Graziano)
05. Recitativo: Mi poteva succedere (Ambrogio)
06. Scena: Che ho da dire? (Ambrogio)
07. Finale: Di trovar perdono io spero (Bellina, Violetta, Riccardo, Ambrogio, Cecilia, Graziano)
08. Quanto mai content io sono! (Bellina, Ambrogio, Cecilia, Riccardo, Graziano, Violetta)
09. Verga quel foglio (Bellina, Ambrogio, Cecilia, Violetta, Riccardo, Graziano)
10. Non si pensi più al passato (Tutti)


Exact Audio Copy V1.3 from 2. September 2016

EAC extraction logfile from 22. December 2019, 13:32

Fabio Neri, Orchestra del giovani del Conservatorio "Claudio Monteverdi" di Bolzano / Cimarosa - Amor rende sagace CD1

Used drive : PIONEER DVD-RW DVR-218L Adapter: 1 ID: 0

Read mode : Secure
Utilize accurate stream : Yes
Defeat audio cache : Yes
Make use of C2 pointers : No

Read offset correction : 6
Overread into Lead-In and Lead-Out : No
Fill up missing offset samples with silence : Yes
Delete leading and trailing silent blocks : No
Null samples used in CRC calculations : Yes
Used interface : Native Win32 interface for Win NT & 2000

Used output format : User Defined Encoder
Selected bitrate : 128 kBit/s
Quality : High
Add ID3 tag : No
Command line compressor : C:\Program Files\Exact Audio Copy\FLAC\FLAC.EXE
Additional command line options : -V -8 -T "Date=%year%" -T "Genre=%genre%" %source%


TOC of the extracted CD

Track | Start | Length | Start sector | End sector
––––––––––––––––––––––––––––-
1 | 0:00.33 | 6:26.05 | 33 | 28987
2 | 6:26.38 | 3:53.07 | 28988 | 46469
3 | 10:19.45 | 2:07.15 | 46470 | 56009
4 | 12:26.60 | 8:04.68 | 56010 | 92377
5 | 20:31.53 | 1:50.70 | 92378 | 100697
6 | 22:22.48 | 5:10.70 | 100698 | 124017
7 | 27:33.43 | 1:12.52 | 124018 | 129469
8 | 28:46.20 | 4:09.45 | 129470 | 148189
9 | 32:55.65 | 1:05.43 | 148190 | 153107
10 | 34:01.33 | 3:03.37 | 153108 | 166869
11 | 37:04.70 | 1:40.48 | 166870 | 174417
12 | 38:45.43 | 3:27.52 | 174418 | 189994
13 | 42:13.20 | 1:58.45 | 189995 | 198889
14 | 44:11.65 | 6:42.33 | 198890 | 229072
15 | 50:54.23 | 1:34.10 | 229073 | 236132
16 | 52:28.33 | 4:45.57 | 236133 | 257564
17 | 57:14.15 | 2:00.53 | 257565 | 266617
18 | 59:14.68 | 4:48.40 | 266618 | 288257


Range status and errors

Selected range

Filename C:\ArlegZ\Cimarosa - Amor rende sagace CD1.wav

Peak level 100.0 %
Extraction speed 1.9 X
Range quality 100.0 %
Test CRC 1ED1D981
Copy CRC 1ED1D981
Copy OK

No errors occurred


AccurateRip summary

Track 1 cannot be verified as accurate (confidence 3) [CFF61B30], AccurateRip returned [1DB37769] (AR v2)
Track 2 cannot be verified as accurate (confidence 3) [AD6D8419], AccurateRip returned [57B1785D] (AR v2)
Track 3 cannot be verified as accurate (confidence 3) [29F866C4], AccurateRip returned [AB4DF141] (AR v2)
Track 4 cannot be verified as accurate (confidence 3) [5A2FF5EF], AccurateRip returned [F3CE45D2] (AR v2)
Track 5 cannot be verified as accurate (confidence 3) [C0933F84], AccurateRip returned [F8793961] (AR v2)
Track 6 cannot be verified as accurate (confidence 3) [7AABE928], AccurateRip returned [B8685558] (AR v2)
Track 7 cannot be verified as accurate (confidence 3) [0C19C5B1], AccurateRip returned [5174DF01] (AR v2)
Track 8 cannot be verified as accurate (confidence 3) [5F5577BA], AccurateRip returned [712E6775] (AR v2)
Track 9 cannot be verified as accurate (confidence 3) [8379B647], AccurateRip returned [D944F808] (AR v2)
Track 10 cannot be verified as accurate (confidence 3) [3D91F44F], AccurateRip returned [0BDF34CA] (AR v2)
Track 11 cannot be verified as accurate (confidence 3) [4D1E3D51], AccurateRip returned [CED2A6ED] (AR v2)
Track 12 cannot be verified as accurate (confidence 3) [5A82E526], AccurateRip returned [852DEFB1] (AR v2)
Track 13 cannot be verified as accurate (confidence 3) [C8987E59], AccurateRip returned [092F0FDF] (AR v2)
Track 14 cannot be verified as accurate (confidence 3) [D924C1E0], AccurateRip returned [43DEB38E] (AR v2)
Track 15 cannot be verified as accurate (confidence 3) [0E98FAEA], AccurateRip returned [7D03D47A] (AR v2)
Track 16 cannot be verified as accurate (confidence 3) [4D7AB552], AccurateRip returned [A1D55957] (AR v2)
Track 17 cannot be verified as accurate (confidence 3) [1DA49310], AccurateRip returned [58199498] (AR v2)
Track 18 cannot be verified as accurate (confidence 3) [8B47A07E], AccurateRip returned [5775E65E] (AR v2)

No tracks could be verified as accurate
You may have a different pressing from the one(s) in the database

End of status report

==== Log checksum B1F968353B93E2DEE03D4BC59005B5FBAD15C8E463B9D6FF0C0CDDB6D3EC1CF3 ====


Exact Audio Copy V1.3 from 2. September 2016

EAC extraction logfile from 22. December 2019, 14:32

Fabio Neri, Orchestra del giovani del Conservatorio "Claudio Monteverdi" di Bolzano / Cimarosa - Amor rende sagace CD2

Used drive : PIONEER DVD-RW DVR-218L Adapter: 1 ID: 0

Read mode : Secure
Utilize accurate stream : Yes
Defeat audio cache : Yes
Make use of C2 pointers : No

Read offset correction : 6
Overread into Lead-In and Lead-Out : No
Fill up missing offset samples with silence : Yes
Delete leading and trailing silent blocks : No
Null samples used in CRC calculations : Yes
Used interface : Native Win32 interface for Win NT & 2000

Used output format : User Defined Encoder
Selected bitrate : 128 kBit/s
Quality : High
Add ID3 tag : No
Command line compressor : C:\Program Files\Exact Audio Copy\FLAC\FLAC.EXE
Additional command line options : -V -8 -T "Date=%year%" -T "Genre=%genre%" %source%


TOC of the extracted CD

Track | Start | Length | Start sector | End sector
––––––––––––––––––––––––––––-
1 | 0:00.33 | 3:43.32 | 33 | 16789
2 | 3:43.65 | 3:55.03 | 16790 | 34417
3 | 7:38.68 | 1:00.10 | 34418 | 38927
4 | 8:39.03 | 4:02.07 | 38928 | 57084
5 | 12:41.10 | 1:35.58 | 57085 | 64267
6 | 14:16.68 | 4:36.40 | 64268 | 85007
7 | 18:53.33 | 9:59.42 | 85008 | 129974
8 | 28:53.00 | 5:21.23 | 129975 | 154072
9 | 34:14.23 | 5:37.42 | 154073 | 179389
10 | 39:51.65 | 3:19.43 | 179390 | 194357


Range status and errors

Selected range

Filename C:\ArlegZ\Cimarosa - Amor rende sagace CD2.wav

Peak level 100.0 %
Extraction speed 1.7 X
Range quality 100.0 %
Test CRC 313861C8
Copy CRC 313861C8
Copy OK

No errors occurred


AccurateRip summary

Track 1 cannot be verified as accurate (confidence 2) [6485C492], AccurateRip returned [C4F4AE51] (AR v2)
Track 2 cannot be verified as accurate (confidence 2) [F75A2ECE], AccurateRip returned [361DEDDE] (AR v2)
Track 3 cannot be verified as accurate (confidence 2) [61F8707D], AccurateRip returned [48289956] (AR v2)
Track 4 cannot be verified as accurate (confidence 2) [3ED43A38], AccurateRip returned [77B0F469] (AR v2)
Track 5 cannot be verified as accurate (confidence 2) [B0A26625], AccurateRip returned [7A0C72D8] (AR v2)
Track 6 cannot be verified as accurate (confidence 2) [FDE0DF43], AccurateRip returned [FBEC19FD] (AR v2)
Track 7 cannot be verified as accurate (confidence 2) [05D1E764], AccurateRip returned [CE7DC7DC] (AR v2)
Track 8 cannot be verified as accurate (confidence 2) [CC6B2627], AccurateRip returned [EE97EC79] (AR v2)
Track 9 cannot be verified as accurate (confidence 2) [EA71930C], AccurateRip returned [EFFAF40E] (AR v2)
Track 10 cannot be verified as accurate (confidence 2) [0DDA5CBF], AccurateRip returned [4F94E73F] (AR v2)

No tracks could be verified as accurate
You may have a different pressing from the one(s) in the database

End of status report

==== Log checksum 0385C88B23FDE2866B7BADF569E69D86DF3008C1ECFBBB8D7B83F3203B10152A ====

Fabio Neri, Orchestra dei giovani del Conservatorio "Claudio Monteverdi" di Bolzano - Cimarosa: Amor rende sagace (1992)