Subcategories

Fastway - All Fired Up (1984) [Japan 1st Press, 1991]

Posted By: Andi_Deris
Fastway - All Fired Up (1984) [Japan 1st Press, 1991]

Fastway - All Fired Up (1984) [Japan 1st Press, 1991]
EAC Rip | FLAC: Image+Cue+Log | 286 Mb | MP3 CBR 320 kbps | 101 Mb | Scans | Time: 41:40
Genre: Hard Rock | Label: Epic/Sony Rec. | Cat.#: ESCA 5343

All Fired Up is the second album by the hard rock band Fastway. It was released in 1984. The follow-up to the debut came only a year later and followed in similar tracks to the original. Like the debut, Kiss/Jimi Hendrix producer Eddie Kramer was brought in to produce. Together they created an album with just a bit more depth than the debut. Some songs had a strong blues-rock vibe, such as "Telephone" and "Station". Others have hard driving Led Zeppelin vibe. "Hurtin Me" in particular had a very Zeppelin-esque sound.



Fastway - All Fired Up (1984) [Japan 1st Press, 1991]


Track Listing

01. All Fired Up (2:43)
02. Misunderstood (3:25)
03. Steal The Show (3:40)
04. Station (2:57)
05. Non-Stop Love (3:55)
06. Hurtin' Me (4:32)
07. Tell Me (3:51)
08. Hung Up On Love (3:29)
09. The Stranger (4:14)
10. Telephone (4:20)
11. If You Could See (4:34)

Produced by Eddie Kramer

The Band

• Dave King: lead vocals
• 'Fast' Eddie Clarke: guitar
• Charlie McCracken: bass guitar
• Jerry Shirley: drums

Exact Audio Copy V0.99 prebeta 5 from 4. May 2009

Отчёт EAC об извлечении, выполненном 11. ноября 2010, 10:43

Fastway / All Fired Up [ESCA 5343]

Дисковод: Optiarc DVD RW AD-7200A Adapter: 1 ID: 0

Режим чтения : Достоверность
Использование точного потока : Да
Отключение кэша аудио : Да
Использование указателей C2 : Нет

Коррекция смещения при чтении : 48
Способность читать области Lead-in и Lead-out : Нет
Заполнение пропущенных сэмплов тишиной : Да
Удаление блоков с тишиной в начале и конце : Нет
При вычислениях CRC использовались нулевые сэмплы : Да
Интерфейс : Встроенный Win32-интерфейс для Win NT/2000

Выходной формат : Пользовательский кодировщик
Выбранный битрейт : 128 kBit/s
Качество : Высокий
Добавление ID3-тэга : Нет
Утилита сжатия : C:\Program Files\Exact Audio Copy\Flac\flac.exe
Дополнительные параметры : -8 -V -T "artist=%a" -T "title=%t" -T "album=%g" -T "date=%y" -T "tracknumber=%n" -T "genre=%m" -T "comment=EAC


TOC извлечённого CD

Трек | Старт | Длительность | Начальный сектор | Конечный сектор
––––––––––––––––––––––––––––––––––-
1 | 0:00.00 | 2:43.35 | 0 | 12259
2 | 2:43.35 | 3:25.52 | 12260 | 27686
3 | 6:09.12 | 3:40.25 | 27687 | 44211
4 | 9:49.37 | 2:57.50 | 44212 | 57536
5 | 12:47.12 | 3:55.58 | 57537 | 75219
6 | 16:42.70 | 4:32.30 | 75220 | 95649
7 | 21:15.25 | 3:51.57 | 95650 | 113031
8 | 25:07.07 | 3:29.25 | 113032 | 128731
9 | 28:36.32 | 4:14.50 | 128732 | 147831
10 | 32:51.07 | 4:20.73 | 147832 | 167404
11 | 37:12.05 | 4:34.57 | 167405 | 188011


Характеристики диапазона извлечения и сообщения об ошибках

Выбранный диапазон

Имя файла Y:\Музыка\Fastway\1984 All Fired Up\Fastway - All Fired Up [ESCA 5343].wav

Пиковый уровень 85.2 %
Качество диапазона 100.0 %
CRC теста 22C70264
CRC копии 22C70264
Копирование… OK

Ошибок не произошло


AccurateRip: сводка

Трек 1 нет в базе данных
Трек 2 нет в базе данных
Трек 3 нет в базе данных
Трек 4 нет в базе данных
Трек 5 нет в базе данных
Трек 6 нет в базе данных
Трек 7 нет в базе данных
Трек 8 нет в базе данных
Трек 9 нет в базе данных
Трек 10 нет в базе данных
Трек 11 нет в базе данных

Ни одного трека нет в базе AccurateRip

Конец отчёта


Many thanks to the original uploader: ikebana

–––––––––
Nitroflare