Subcategories

Fastway - Fastway (1983) [Japan 1st Press, 1991]

Posted By: Andi_Deris
Fastway - Fastway (1983) [Japan 1st Press, 1991]

Fastway - Fastway (1983) [Japan 1st Press, 1991]
EAC Rip | FLAC: Image+Cue+Log | 258 Mb | MP3 CBR 320 kbps | 90 Mb | Scans | Time: 36:42
Genre: Hard Rock | Label: Epic/Sony Rec. | Cat.#: ESCA 5342

Fastway is the first album by the band, Fastway. An '80s British hard-rock/heavy metal band originally formed by ex-Motorhead guitarist "Fast" Eddie Clarke and UFO bassist Pete Way, thus the name FAST-WAY. Unfortunately Pete left before the first recording for what turned out to be a very short stint with Ozzy Osbourne. Fastway also featured ex-Humble Pie drummer, Jerry Shirley and a young singer, David King. King went on to form Katmandu.



Fastway - Fastway (1983) [Japan 1st Press, 1991]


Track Listing

01. Easy Livin' (2:47)
02. Feel Me, Touch Me (Do Anything You Want) (3:28)
03. All I Need Is Your Love (2:32)
04. Another Day (4:41)
05. Heft! (5:38)
06. We Become One (3:59)
07. Give It All You Got (3:01)
08. Say What You Will (3:20)
09. You Got Me Runnin' (3:04)
10. Give It Some Action (4:12)

Produced by Eddie Kramer

The Band

• Dave King: vocals
• "Fast" Eddie Clarke: guitar
• Pete Way: bass guitar (credited, but does not actually play on album)
• Jerry Shirley: drums
• Mickey Feat: bass guitar (uncredited)

Notes

Excellent debut album from Motorhead guitarist Fast Eddie Clarke. Their sound is not quite as heavy and harsh as Motorhead, but it's not exactly pop rock either. Actually Fastway fit in neatly with the NWOBHM invasion that was beginning to take over the world in 1983. Fastway brings in a lot of the classic 70's hard rock sound.

According to Eddie, "I don't think Fastwy are in any way a heavy metal band really. The whole emphasis of our band is dynmacs and vocals and the songs should have some meaning. HM bands don't do that. They go woaaarrrggghhh…the whole idea of building this band was to make it a rock and roll band, but a heavy rock and roll band." ~ Creem Magazine, p. 61, Dec. 1983

Exact Audio Copy V0.99 prebeta 5 from 4. May 2009

Отчёт EAC об извлечении, выполненном 11. ноября 2010, 10:15

Fastway / Fastway [ESCA 5342]

Дисковод: Optiarc DVD RW AD-7200A Adapter: 1 ID: 0

Режим чтения : Достоверность
Использование точного потока : Да
Отключение кэша аудио : Да
Использование указателей C2 : Нет

Коррекция смещения при чтении : 48
Способность читать области Lead-in и Lead-out : Нет
Заполнение пропущенных сэмплов тишиной : Да
Удаление блоков с тишиной в начале и конце : Нет
При вычислениях CRC использовались нулевые сэмплы : Да
Интерфейс : Встроенный Win32-интерфейс для Win NT/2000

Выходной формат : Пользовательский кодировщик
Выбранный битрейт : 128 kBit/s
Качество : Высокий
Добавление ID3-тэга : Нет
Утилита сжатия : C:\Program Files\Exact Audio Copy\Flac\flac.exe
Дополнительные параметры : -8 -V -T "artist=%a" -T "title=%t" -T "album=%g" -T "date=%y" -T "tracknumber=%n" -T "genre=%m" -T "comment=EAC


TOC извлечённого CD

Трек | Старт | Длительность | Начальный сектор | Конечный сектор
––––––––––––––––––––––––––––––––––-
1 | 0:00.00 | 2:47.00 | 0 | 12524
2 | 2:47.00 | 3:28.00 | 12525 | 28124
3 | 6:15.00 | 2:32.65 | 28125 | 39589
4 | 8:47.65 | 4:41.65 | 39590 | 60729
5 | 13:29.55 | 5:38.62 | 60730 | 86141
6 | 19:08.42 | 3:59.05 | 86142 | 104071
7 | 23:07.47 | 3:01.60 | 104072 | 117706
8 | 26:09.32 | 3:20.33 | 117707 | 132739
9 | 29:29.65 | 3:04.05 | 132740 | 146544
10 | 32:33.70 | 4:12.62 | 146545 | 165506


Характеристики диапазона извлечения и сообщения об ошибках

Выбранный диапазон

Имя файла Y:\Музыка\Fastway\1983 Fastway\Fastway - Fastway [ESCA 5342].wav

Пиковый уровень 98.5 %
Качество диапазона 100.0 %
CRC теста 362B500A
CRC копии 362B500A
Копирование… OK

Ошибок не произошло


AccurateRip: сводка

Трек 1 нет в базе данных
Трек 2 нет в базе данных
Трек 3 нет в базе данных
Трек 4 нет в базе данных
Трек 5 нет в базе данных
Трек 6 нет в базе данных
Трек 7 нет в базе данных
Трек 8 нет в базе данных
Трек 9 нет в базе данных
Трек 10 нет в базе данных

Ни одного трека нет в базе AccurateRip

Конец отчёта


Many thanks to the original uploader: ikebana

–––––––––
Nitroflare