Tags
Language
Tags

Federica Napoletani, Cristina Corrieri, Ensemble Imaginaire - Leo, Pergolesi, Porpora: Salve Regina (2020)

Posted By: ArlegZ
Federica Napoletani, Cristina Corrieri, Ensemble Imaginaire - Leo, Pergolesi, Porpora: Salve Regina (2020)

Federica Napoletani, Cristina Corrieri, Ensemble Imaginaire - Leo, Pergolesi, Porpora: Salve Regina (2020)
EAC | FLAC | Image (Cue & Log) ~ 266 Mb | Total time: 61:22 | Scans included
Classical | Label: Brilliant Classics | # 96092 | Recorded: 2018

The four Salve Regina recordings presented on this uniquely compiled new album cross the boundary between opera house and church a boundary that in 18th-century Naples was never very forbidding to begin with. In fact, Leo, Pergolesi and Porpora are all fine examples of composers who moved with unselfconscious facility between sacred and secular genres, between old counterpoint and the Monteverdian stile concertato that caressed each word with sensuous melismas and velvet harmonies. Porpora was a noted singing teacher of his day, intimately familiar with everything that a voice can do, and possessing a melodic skill that spins long and ornate vocal phrases of almost instrumental effect. The Salve Regina by Pergolesi presented here is in G minor, and is a different work to his much more familiar settings of the text in F major and A minor, with a grave and restrained vocal line that evokes a meditative aura far removed from Porporas fireworks. Extreme versions of these contrasting tendencies also characterize the two settings by Leonardo Leo. The F major Salve Regina is bright and extrovert, only darkening for a minor-key setting of Ad te suspiramus, with an agile vocal line full of operatic flourishes. In the C minor Salve Regina, however, Leo evokes a mood of intense lamentation with a style so restrained that it would seem almost archaic were it not for the expressive harmonies not so distant from Pergolesis world. Federica Napoletani studied piano and singing at the conservatoire in Parma before joining Luisa Castellanis class for a Masters at the Conservatorio della Svizzera Italian in Lugano. She specializes in new and early music and has performed with many distinguished early-music groups including Vox Altera, Odhecaton and Ensemble Imaginaire.

Performer:
Federica Napoletani, soprano
Ensemble Imaginaire
Cristina Corrieri, conductor

Track List:
Nicola Antonio Porpora (1686-1768)
Salve Regina in G major
01. I. Salve regina
02. II. Ad te clamamus
03. III. Ad te suspiramus
04. IV. Eja ergo
05. V. Et Jesum benedictum
06. VI. O clemens, o pia
Giovanni Battista Pergolesi (1710-1736)
Salve Regina in G minor
07. I. Salve regina
08. II. Ad te clamamus
09. III. Ad te suspiramus
10. IV. Eja ergo
11. V. Et Jesum benedictum
Leonardo Leo (1694-1744)
Salve Regina in C minor
12. I. Salve regina
13. II. Ad te clamamus
14. III. Ad te suspiramus
15. IV. Eja ergo
16. V. Et Jesum benedictum
17. VI. O clemens, o pia
Salve Regina in F major
18. I. Salve regina
19. II.Ad te clamamus
20. III. Ad te suspiramus
21. IV. Eja ergo
22. V. Et Jesum benedictum
23. VI. O clemens, o pia (Largo)


Exact Audio Copy V1.3 from 2. September 2016

EAC extraction logfile from 17. March 2021, 9:31

Federica Napoletani / Salve Regina - Leo, Pergolesi, Porpora

Used drive : hp DVD-RAM GH82N Adapter: 1 ID: 0

Read mode : Secure
Utilize accurate stream : Yes
Defeat audio cache : Yes
Make use of C2 pointers : No

Read offset correction : 667
Overread into Lead-In and Lead-Out : No
Fill up missing offset samples with silence : Yes
Delete leading and trailing silent blocks : No
Null samples used in CRC calculations : Yes
Used interface : Native Win32 interface for Win NT & 2000

Used output format : User Defined Encoder
Selected bitrate : 1024 kBit/s
Quality : High
Add ID3 tag : No
Command line compressor : C:\Program Files (x86)\Exact Audio Copy\FLAC\FLAC.EXE
Additional command line options : -6 -V -T "ARTIST=%artist%" -T "TITLE=%title%" -T "ALBUM=%albumtitle%" -T "DATE=%year%" -T "TRACKNUMBER=%tracknr%" -T "GENRE=%genre%" -T "COMMENT=%comment%" -T "BAND=%albuminterpret%" -T "ALBUMARTIST=%albuminterpret%" -T "COMPOSER=%composer%" %haslyrics%–tag-from-file=LYRICS="%lyricsfile%"%haslyrics% -T "DISCNUMBER=%cdnumber%" -T "TOTALDISCS=%totalcds%" -T "TOTALTRACKS=%numtracks%" %hascover%–picture="%coverfile%"%hascover% %source% -o %dest%


TOC of the extracted CD

Track | Start | Length | Start sector | End sector
––––––––––––––––––––––––––––-
1 | 0:00.00 | 3:52.25 | 0 | 17424
2 | 3:52.25 | 1:39.56 | 17425 | 24905
3 | 5:32.06 | 2:46.49 | 24906 | 37404
4 | 8:18.55 | 2:26.20 | 37405 | 48374
5 | 10:45.00 | 2:48.02 | 48375 | 60976
6 | 13:33.02 | 3:07.55 | 60977 | 75056
7 | 16:40.57 | 3:01.63 | 75057 | 88694
8 | 19:42.45 | 0:50.58 | 88695 | 92502
9 | 20:33.28 | 3:19.64 | 92503 | 107491
10 | 23:53.17 | 1:34.47 | 107492 | 114588
11 | 25:27.64 | 2:38.16 | 114589 | 126454
12 | 28:06.05 | 4:15.11 | 126455 | 145590
13 | 32:21.16 | 0:58.15 | 145591 | 149955
14 | 33:19.31 | 1:44.72 | 149956 | 157827
15 | 35:04.28 | 3:05.45 | 157828 | 171747
16 | 38:09.73 | 2:44.01 | 171748 | 184048
17 | 40:53.74 | 3:27.65 | 184049 | 199638
18 | 44:21.64 | 3:46.32 | 199639 | 216620
19 | 48:08.21 | 2:55.69 | 216621 | 229814
20 | 51:04.15 | 3:35.73 | 229815 | 246012
21 | 54:40.13 | 2:49.07 | 246013 | 258694
22 | 57:29.20 | 0:36.14 | 258695 | 261408
23 | 58:05.34 | 3:14.57 | 261409 | 276015


Range status and errors

Selected range

Filename C:\rips\Federica Napoletani - Salve Regina - Leo, Pergolesi, Porpora.wav

Peak level 96.1 %
Extraction speed 3.2 X
Range quality 99.9 %
Test CRC 68921B9A
Copy CRC 68921B9A
Copy OK

No errors occurred


AccurateRip summary

Track 1 not present in database
Track 2 not present in database
Track 3 not present in database
Track 4 not present in database
Track 5 not present in database
Track 6 not present in database
Track 7 not present in database
Track 8 not present in database
Track 9 not present in database
Track 10 not present in database
Track 11 not present in database
Track 12 not present in database
Track 13 not present in database
Track 14 not present in database
Track 15 not present in database
Track 16 not present in database
Track 17 not present in database
Track 18 not present in database
Track 19 not present in database
Track 20 not present in database
Track 21 not present in database
Track 22 not present in database
Track 23 not present in database

None of the tracks are present in the AccurateRip database

End of status report

–– CUETools DB Plugin V2.1.6

[CTDB TOCID: Bd7EB2ZQvGLTjwIlKYAkcsQi..A-] disk not present in database
Submit result: Bd7EB2ZQvGLTjwIlKYAkcsQi..A- has been uploaded


==== Log checksum 74A6CC508F14CC78891BB9A6592BEE048A8E1E66A9830330CBD41AD098332AC6 ====

Federica Napoletani, Cristina Corrieri, Ensemble Imaginaire - Leo, Pergolesi, Porpora: Salve Regina (2020)

Thanks to the original releaser