Tags
Language
Tags

Federico Maria Sardelli, Orchestra of the Maggio Musicale Fiorentino - Vivaldi: Il Farnace (2015)

Posted By: ArlegZ
Federico Maria Sardelli, Orchestra of the Maggio Musicale Fiorentino - Vivaldi: Il Farnace (2015)

Federico Maria Sardelli, Orchestra of the Maggio Musicale Fiorentino - Vivaldi: Il Farnace (2015)
EAC | FLAC | Image (Cue & Log) ~ 704 Mb | Total time: 69:40+74:59 | Scans included
Classical | Label: Dynamic | # CDS7670/1-2 | Recorded: 2013

Il Farnace is the most re-written and re-proposed of Vivaldi’s operas, it’s like a beloved child who worries his father, and to whom the parent always wants to give the best. Versions of Farnace, two in 1727 and one each in 1730, 1731 and 1732, had been conceived and adapted to the different circumstances for Venice, Prague, Pavia and Mantua, always with a cast to Vivaldi’s satisfaction and with the composer in control of the production.
The greatest appreciation of Vivaldi’s operatic music was expressed in a letter by a spectator of the 1727 Carnival season, the abbot Antonio Conti. He wrote to Madame de Caylus that of all the operas of the Venice season he liked best Farnace because its music was very varied, “between the sublime and the tender”, and because Vivaldi’s pupil worked wonders.
In 1738, for the Ferrara Carnival season, Vivaldi wrote a new score of the opera. This is the last Farnace, in two acts, as the third was lost.

Performer:
Farnace - Mary-Ellen Nesi
Tamiri - Sonia Prina
Gilade - Roberta Mameli
Berenice - Delphine Galou
Selinda - Loriana Castellano
Aquilio - Magnus Staveland
Pompeo - Emanuele D'Aguanno
Orchestra of the Maggio Musicale Fiorentino
Conductor - Federico Maria Sardelli

Track List:
CD1:
01. Sinfonia
Act I
02. Scene 1: Recitative: Benche vinto e sconfitto (Farnace, Tamiri)
03. Scene 1: Aria: Ricordati che sei (Farnace)
04. Scene 2: Recitative: Ch'io mi tolga col ferro (Tamiri)
05. Scene 2: Aria: Combattono ques't alma la gloria (Tamiri)
06. Scene 3: Coro: Dell' Eusino (Chorus)
07. Scene 3: Recitative: Dell nemico Farnace quest'e l'Impero (Gilade, Berenice)
08. Scene 5: Su campioni, su guerrieri (Chorus)
09. Scene 5: Recitative: In si gran punto ancora (Farnace)
10. Scene 7: Aria: Nell'intimo del petto quel dolce caro affetto (Gilade)
11. Scene 8: Recitative: A sorprendermi il cor, bella Selinda (Aquilio, Selinda)
12. Scene 8: Aria: Penso…penso che que'begl'occhi (Aquilio)
13. Scene 9: Recitative: Qual sembianza improvvisa (Selinda)
14. Scene 12: Aria: Da quel ferro che ha svenato (Berenice)
15. Scena 13: Recitative Donna, la tua fortuna (Pompeo)
16. Scena 13: Or di Roma forti eroi (Tamiri)
17. Scene 14: Recitative: Come ben fa veder la donna eccelsa (Pompeo)
18. Scena 14: Non trema senza stella (Pompeo)
Act II
19. Scene 1: Recitative: Principessa gentil, ciascun di noi (Gilade, Aquilio, Selinda)
20. Scene 1: Aria: Lascia di sospirar! (Selinda)
21. Scene 1: Recitative: Tempo miglior si scelga (Gilade, Aquilio)
22. Scene 2: Alle minacce di fiera belva (Aquilio)
CD2:
01. Scene 2: Recitative: Di Farnace e del figlio (Berenice, Gilade)
02. Scene 3: Al tribunal d'amore (Berenice)
03. Scene 3: Recitative: No, ch'amar non e fallo in cor guerriero (Gilade)
04. Scene 10: Aria: Quel tuo ciglio languidetto (Gilade)
05. Scene 4: Recitative: No, che ceder non viglio (Farnace)
06. Scene 5: Perdona, o figlio amato (Farnace)
07. Scene 6: Recitative: Ola! Queste superbe memorie (Berenice, Tamiri)
08. Scene 9: Dividete o giusti Dei (Tamiri)
09. Scene 10: Recitative: Ah, s'egli e ver che m'ami (Selinda, Gilade)
10. Scene 10: Aria: Quel tuo ciglio languidetto (Gilade)
11. Scene 11: Recitative: Dove mai ti trasporta (Selinda)
12. Scene 11: Gemo in un punto e fremo (Farnace)
13. Scene 12: Recitative: Dell'iniquo Farnace eccoti il figlio (Berenice)
14. Scene 12: Aria: Roma invitta, ma clemente (Pompeo)
15. Scene 13: Recitative: Fra le Libiche serpi (Selinda, Aquilio, Berenice)
16. Scene 13: Amorosa e men irata (Berenice)
17. Scene 14: Recitative: Aquilio, ebben? Pensasti? (Selinda, Aquilio)
18. Scene 14: Duet: Io sento nel petto si grande l'affetto (Selinda, Aquilio)
19. Scene 14: Aria: Gelido in ogni vena (Farnace)


Exact Audio Copy V1.3 from 2. September 2016

EAC extraction logfile from 21. June 2019, 11:18

Federico Sardelli / Vivaldi - Il Farnace, RV 711 CD1

Used drive : HL-DT-STBD-RE WH16NS40 Adapter: 1 ID: 0

Read mode : Secure
Utilize accurate stream : Yes
Defeat audio cache : Yes
Make use of C2 pointers : No

Read offset correction : 6
Overread into Lead-In and Lead-Out : No
Fill up missing offset samples with silence : Yes
Delete leading and trailing silent blocks : No
Null samples used in CRC calculations : Yes
Used interface : Native Win32 interface for Win NT & 2000

Used output format : User Defined Encoder
Selected bitrate : 1024 kBit/s
Quality : High
Add ID3 tag : No
Command line compressor : C:\Program Files (x86)\Exact Audio Copy\FLAC\FLAC.EXE
Additional command line options : -6 -V -T "ARTIST=%artist%" -T "TITLE=%title%" -T "ALBUM=%albumtitle%" -T "DATE=%year%" -T "TRACKNUMBER=%tracknr%" -T "GENRE=%genre%" -T "COMMENT=%comment%" -T "BAND=%albuminterpret%" -T "ALBUMARTIST=%albuminterpret%" -T "COMPOSER=%composer%" %haslyrics%–tag-from-file=LYRICS="%lyricsfile%"%haslyrics% -T "DISCNUMBER=%cdnumber%" -T "TOTALDISCS=%totalcds%" -T "TOTALTRACKS=%numtracks%" %hascover%–picture="%coverfile%"%hascover% %source% -o %dest%


TOC of the extracted CD

Track | Start | Length | Start sector | End sector
––––––––––––––––––––––––––––-
1 | 0:00.00 | 6:52.16 | 0 | 30915
2 | 6:52.16 | 3:18.33 | 30916 | 45798
3 | 10:10.49 | 3:24.25 | 45799 | 61123
4 | 13:34.74 | 0:41.70 | 61124 | 64268
5 | 14:16.69 | 4:43.55 | 64269 | 85548
6 | 19:00.49 | 1:31.59 | 85549 | 92432
7 | 20:32.33 | 2:57.21 | 92433 | 105728
8 | 23:29.54 | 0:22.33 | 105729 | 107411
9 | 23:52.12 | 2:35.74 | 107412 | 119110
10 | 26:28.11 | 4:05.06 | 119111 | 137491
11 | 30:33.17 | 2:32.14 | 137492 | 148905
12 | 33:05.31 | 3:17.00 | 148906 | 163680
13 | 36:22.31 | 9:38.71 | 163681 | 207101
14 | 46:01.27 | 3:27.39 | 207102 | 222665
15 | 49:28.66 | 1:33.57 | 222666 | 229697
16 | 51:02.48 | 4:10.37 | 229698 | 248484
17 | 55:13.10 | 0:24.09 | 248485 | 250293
18 | 55:37.19 | 4:47.46 | 250294 | 271864
19 | 60:24.65 | 1:42.40 | 271865 | 279554
20 | 62:07.30 | 2:40.44 | 279555 | 291598
21 | 64:47.74 | 0:40.58 | 291599 | 294656
22 | 65:28.57 | 4:26.46 | 294657 | 314652


Range status and errors

Selected range

Filename C:\Users\Grant\Desktop\Federico Sardelli - Vivaldi - Il Farnace, RV 711 CD1.wav

Peak level 96.2 %
Extraction speed 2.0 X
Range quality 100.0 %
Test CRC AACA4D95
Copy CRC AACA4D95
Copy OK

No errors occurred


AccurateRip summary

Track 1 accurately ripped (confidence 2) [07B8416D] (AR v2)
Track 2 accurately ripped (confidence 2) [799F8FCD] (AR v2)
Track 3 accurately ripped (confidence 2) [B6D28A04] (AR v2)
Track 4 accurately ripped (confidence 2) [6E7AEAAE] (AR v2)
Track 5 accurately ripped (confidence 2) [67CEEDAD] (AR v2)
Track 6 accurately ripped (confidence 2) [A30FFA99] (AR v2)
Track 7 accurately ripped (confidence 2) [92EC235C] (AR v2)
Track 8 accurately ripped (confidence 2) [B8E9C3F6] (AR v2)
Track 9 accurately ripped (confidence 2) [3B55BADD] (AR v2)
Track 10 accurately ripped (confidence 2) [0A865EF3] (AR v2)
Track 11 accurately ripped (confidence 2) [07D5756F] (AR v2)
Track 12 accurately ripped (confidence 2) [1D5C06C5] (AR v2)
Track 13 accurately ripped (confidence 2) [B98795FB] (AR v2)
Track 14 accurately ripped (confidence 2) [37F846CD] (AR v2)
Track 15 accurately ripped (confidence 2) [C0665C2C] (AR v2)
Track 16 accurately ripped (confidence 2) [E6345640] (AR v2)
Track 17 accurately ripped (confidence 2) [875186AA] (AR v2)
Track 18 accurately ripped (confidence 2) [A0539B4E] (AR v2)
Track 19 accurately ripped (confidence 2) [71A75A04] (AR v2)
Track 20 accurately ripped (confidence 2) [1B0D3A03] (AR v2)
Track 21 accurately ripped (confidence 2) [DC604FAA] (AR v2)
Track 22 accurately ripped (confidence 2) [AAEF6651] (AR v2)

All tracks accurately ripped

End of status report

–– CUETools DB Plugin V2.1.6

[CTDB TOCID: .gHmoP1WrKmjX32B7a.7YzaE8Fc-] found
Submit result: .gHmoP1WrKmjX32B7a.7YzaE8Fc- has been confirmed
Track | CTDB Status
1 | (2/2) Accurately ripped
2 | (2/2) Accurately ripped
3 | (2/2) Accurately ripped
4 | (2/2) Accurately ripped
5 | (2/2) Accurately ripped
6 | (2/2) Accurately ripped
7 | (2/2) Accurately ripped
8 | (2/2) Accurately ripped
9 | (2/2) Accurately ripped
10 | (2/2) Accurately ripped
11 | (2/2) Accurately ripped
12 | (2/2) Accurately ripped
13 | (2/2) Accurately ripped
14 | (2/2) Accurately ripped
15 | (2/2) Accurately ripped
16 | (2/2) Accurately ripped
17 | (2/2) Accurately ripped
18 | (2/2) Accurately ripped
19 | (2/2) Accurately ripped
20 | (2/2) Accurately ripped
21 | (2/2) Accurately ripped
22 | (2/2) Accurately ripped


==== Log checksum D9A4E898F15D8E9290F72745998C47387DB37E6A95784342D0EE0738B2D8CBF5 ====


Exact Audio Copy V1.3 from 2. September 2016

EAC extraction logfile from 21. June 2019, 12:13

Federico Sardelli / Vivaldi - Il Farnace, RV 711 CD2

Used drive : HL-DT-STBD-RE WH16NS40 Adapter: 1 ID: 0

Read mode : Secure
Utilize accurate stream : Yes
Defeat audio cache : Yes
Make use of C2 pointers : No

Read offset correction : 6
Overread into Lead-In and Lead-Out : No
Fill up missing offset samples with silence : Yes
Delete leading and trailing silent blocks : No
Null samples used in CRC calculations : Yes
Used interface : Native Win32 interface for Win NT & 2000

Used output format : User Defined Encoder
Selected bitrate : 1024 kBit/s
Quality : High
Add ID3 tag : No
Command line compressor : C:\Program Files (x86)\Exact Audio Copy\FLAC\FLAC.EXE
Additional command line options : -6 -V -T "ARTIST=%artist%" -T "TITLE=%title%" -T "ALBUM=%albumtitle%" -T "DATE=%year%" -T "TRACKNUMBER=%tracknr%" -T "GENRE=%genre%" -T "COMMENT=%comment%" -T "BAND=%albuminterpret%" -T "ALBUMARTIST=%albuminterpret%" -T "COMPOSER=%composer%" %haslyrics%–tag-from-file=LYRICS="%lyricsfile%"%haslyrics% -T "DISCNUMBER=%cdnumber%" -T "TOTALDISCS=%totalcds%" -T "TOTALTRACKS=%numtracks%" %hascover%–picture="%coverfile%"%hascover% %source% -o %dest%


TOC of the extracted CD

Track | Start | Length | Start sector | End sector
––––––––––––––––––––––––––––-
1 | 0:00.00 | 2:28.07 | 0 | 11106
2 | 2:28.07 | 4:08.34 | 11107 | 29740
3 | 6:36.41 | 0:36.23 | 29741 | 32463
4 | 7:12.64 | 7:19.11 | 32464 | 65399
5 | 14:32.00 | 3:26.00 | 65400 | 80849
6 | 17:58.00 | 8:40.62 | 80850 | 119911
7 | 26:38.62 | 7:19.31 | 119912 | 152867
8 | 33:58.18 | 5:44.61 | 152868 | 178728
9 | 39:43.04 | 1:17.66 | 178729 | 184569
10 | 41:00.70 | 4:13.28 | 184570 | 203572
11 | 45:14.23 | 2:06.45 | 203573 | 213067
12 | 47:20.68 | 2:58.11 | 213068 | 226428
13 | 50:19.04 | 1:43.45 | 226429 | 234198
14 | 52:02.49 | 4:30.46 | 234199 | 254494
15 | 56:33.20 | 0:41.25 | 254495 | 257594
16 | 57:14.45 | 3:41.21 | 257595 | 274190
17 | 60:55.66 | 1:27.37 | 274191 | 280752
18 | 62:23.28 | 3:15.56 | 280753 | 295433
19 | 65:39.09 | 9:33.05 | 295434 | 338413


Range status and errors

Selected range

Filename C:\Users\Grant\Desktop\Federico Sardelli - Vivaldi - Il Farnace, RV 711 CD2.wav

Peak level 99.9 %
Extraction speed 2.0 X
Range quality 99.9 %
Test CRC 5F138F26
Copy CRC 5F138F26
Copy OK

No errors occurred


AccurateRip summary

Track 1 accurately ripped (confidence 2) [0CDFC476] (AR v2)
Track 2 accurately ripped (confidence 2) [2FE3A479] (AR v2)
Track 3 accurately ripped (confidence 2) [BE64659C] (AR v2)
Track 4 accurately ripped (confidence 2) [9FE1DDD2] (AR v2)
Track 5 accurately ripped (confidence 2) [CE148974] (AR v2)
Track 6 accurately ripped (confidence 2) [3DEAADBF] (AR v2)
Track 7 accurately ripped (confidence 2) [46BE204A] (AR v2)
Track 8 accurately ripped (confidence 2) [F30E14D6] (AR v2)
Track 9 accurately ripped (confidence 2) [0C318DA9] (AR v2)
Track 10 accurately ripped (confidence 2) [8FED2AC1] (AR v2)
Track 11 accurately ripped (confidence 2) [69537558] (AR v2)
Track 12 accurately ripped (confidence 2) [F5208F35] (AR v2)
Track 13 accurately ripped (confidence 2) [C025B409] (AR v2)
Track 14 accurately ripped (confidence 2) [3A6C3CF8] (AR v2)
Track 15 accurately ripped (confidence 2) [72EA391E] (AR v2)
Track 16 accurately ripped (confidence 2) [F422B2BF] (AR v2)
Track 17 accurately ripped (confidence 2) [F0FA4960] (AR v2)
Track 18 accurately ripped (confidence 2) [6CC4C27A] (AR v2)
Track 19 accurately ripped (confidence 2) [E51B8581] (AR v2)

All tracks accurately ripped

End of status report

–– CUETools DB Plugin V2.1.6

[CTDB TOCID: cAoAPcd3YNl_Z3iAhoWFoTcyFtI-] found
Submit result: cAoAPcd3YNl_Z3iAhoWFoTcyFtI- has been confirmed
Track | CTDB Status
1 | (2/2) Accurately ripped
2 | (2/2) Accurately ripped
3 | (2/2) Accurately ripped
4 | (2/2) Accurately ripped
5 | (2/2) Accurately ripped
6 | (2/2) Accurately ripped
7 | (2/2) Accurately ripped
8 | (2/2) Accurately ripped
9 | (2/2) Accurately ripped
10 | (2/2) Accurately ripped
11 | (2/2) Accurately ripped
12 | (2/2) Accurately ripped
13 | (2/2) Accurately ripped
14 | (2/2) Accurately ripped
15 | (2/2) Accurately ripped
16 | (2/2) Accurately ripped
17 | (2/2) Accurately ripped
18 | (2/2) Accurately ripped
19 | (2/2) Accurately ripped


==== Log checksum 8AEBFE3CBCB1F926C136E34C37EA8672B6BCD246F75E1009FE56AA23DFF73ECC ====

Federico Maria Sardelli, Orchestra of the Maggio Musicale Fiorentino - Vivaldi: Il Farnace (2015)

Thanks to the original releaser