Tags
Language
Tags

Florilegium, Clare Wilkinson - Georg Philipp Telemann: Concertos & Cantata Ihr Volker Hort (2016)

Posted By: Designol
Florilegium, Clare Wilkinson - Georg Philipp Telemann: Concertos & Cantata Ihr Volker Hort (2016)

Georg Philipp Telemann: Concertos & Cantata Ihr Völker Hört (2016)
Florilegium; Clare Wilkinson, mezzo-soprano

EAC | FLAC | Image (Cue&Log) ~ 337 Mb | Mp3 (CBR320) ~ 182 Mb | Artwork included
Genre: Classical | Label: Channel Classics | # CCS 38616 | Time: 01:18:46

Florilegium, Clare Wilkinson - Georg Philipp Telemann: Concertos & Cantata Ihr Volker Hort (2016)

This attractive mixed programme of Telemann’s works featuring flute or recorder has been designed by Ashley Solomon to celebrate Florilegium’s 25th anniversary. The triple concerto for flute, oboe d’amore and viola d’amore in E major (TWV53:E1) stands out as one of the composer’s most beguiling masterpieces: the limpid opening Andante sounds like a serene evocation of sunrise that anticipates the mature Haydn by several decades; the soloists Solomon, Alexandra Bellamy and Bojan Čičić play with elegant finesse, and also conjure up refined melancholy in an intimately conversational Siciliana.

The double concerto for recorder and viola da gamba in A minor (TWV52:a1) is a charming example of Telemann’s taste for synthesising French and Italian musical styles with elements of Polish folk music; Florilegium’s civilised elegance in the French-style Grave, gently Italianate sway in the Allegro, and Solomon’s duet with gambist Reiko Ichise in the Dolce has pastoral sensitivity. Always played with cultivated refinement, Florilegium provide a thoughtful alternative to the more firmly textured and zestier approach taken by La Stagione Frankfurt (CPO, 2015).

At the heart of the programme is Ihr Völker hört (TWV1:921), a cantata for solo voice and obbligato instrument (played here on the flute by Solomon) that was published in the first instalment of the series Harmonischer Gottes-Dienst (Hamburg, 1725 26). Clare Wilkinson’s softly convivial and articulate singing communicates the cheerful Epiphany text. Solomon takes centre stage in a flute concerto in D major (TWV51:D2), but my ears were drawn equally to the sympathetic continuo-playing of theorbist David Miller and harpsichordist Terence Charlston.

The bigger-scale finale is an F major overture and dance suite (TWV55:F16), dedicated to the Landgrave of Darmstadt and probably written late in Telemann’s long life; in the turbulent Ramellian ‘Tempête’ a pair of horns and bassoon are on thrilling form, so it is a pity that half of the dances could not fit on the disc – but they are available to download.

Review by David Vickers, Gramophone


Florilegium, Clare Wilkinson - Georg Philipp Telemann: Concertos & Cantata Ihr Volker Hort (2016)



Florilegium, Clare Wilkinson - Georg Philipp Telemann: Concertos & Cantata Ihr Volker Hort (2016)



Florilegium, Clare Wilkinson - Georg Philipp Telemann: Concertos & Cantata Ihr Volker Hort (2016)



Clare Wilkinson, mezzo-soprano (9-11)
Florilegium

Tracklist:

Concerto in E major, TWV53: E1
01. I. Andante (3:19)
02. II. Allegro (5:28)
03. III. Siciliana (3:19)
04. IV. Vivace (4:29)

Concerto in A minor, TWV52: a1
05. I. Grave (3:54)
06. II. Allegro (4:22)
07. III. Dolce (3:40)
08. IV. Allegro (4:19)

Cantata Ihr Völker Hört, TWV1: 921
09. Aria: Ihr Völker Hört (5:35)
10. Recitative: Die Finsternis entweicht (3:10)
11. Aria: Halleluja (3:11)

Concerto in D major, TWV51: D2
12. I. Moderato (2:26)
13. II. Allegro (3:48)
14. III. Largo (3:54)
15. IV. Vivace (3:21)

Concerto a 4 in A minor, TWV43: a3
16. I. Adagio (2:27)
17. II. Allegro (1:48)
18. III. Adagio (1:42)
19. IV. Vivace (4:11)

Overture in F major, TWV55: F16
20. I. Ouverture (3:28)
21. II. Courante (1:41)
22. III. Bourree I & II (2:41)
23. IV. La Tempete (2:32)


Exact Audio Copy V1.1 from 23. June 2015

EAC extraction logfile from 1. February 2017, 1:32

Florilegium / Telemann - Concertos & cantata Ihr Völker Hört

Used drive : HL-DT-STDVDRAM GU70N Adapter: 1 ID: 0

Read mode : Secure
Utilize accurate stream : Yes
Defeat audio cache : Yes
Make use of C2 pointers : No

Read offset correction : 48
Overread into Lead-In and Lead-Out : No
Fill up missing offset samples with silence : Yes
Delete leading and trailing silent blocks : No
Null samples used in CRC calculations : Yes
Used interface : Native Win32 interface for Win NT & 2000

Used output format : User Defined Encoder
Selected bitrate : 128 kBit/s
Quality : High
Add ID3 tag : No
Command line compressor : C:\Program Files (x86)\Exact Audio Copy\Flac\flac.exe
Additional command line options : -V -8 -T "Date=%year%" -T "Genre=%genre%" %source%


TOC of the extracted CD

Track | Start | Length | Start sector | End sector
––––––––––––––––––––––––––––-
1 | 0:00.00 | 3:19.32 | 0 | 14956
2 | 3:19.32 | 5:27.65 | 14957 | 39546
3 | 8:47.22 | 3:19.12 | 39547 | 54483
4 | 12:06.34 | 4:29.19 | 54484 | 74677
5 | 16:35.53 | 3:54.14 | 74678 | 92241
6 | 20:29.67 | 4:22.25 | 92242 | 111916
7 | 24:52.17 | 3:40.00 | 111917 | 128416
8 | 28:32.17 | 4:18.72 | 128417 | 147838
9 | 32:51.14 | 5:34.67 | 147839 | 172955
10 | 38:26.06 | 3:10.33 | 172956 | 187238
11 | 41:36.39 | 3:10.50 | 187239 | 201538
12 | 44:47.14 | 2:26.23 | 201539 | 212511
13 | 47:13.37 | 3:47.40 | 212512 | 229576
14 | 51:01.02 | 3:53.45 | 229577 | 247096
15 | 54:54.47 | 3:21.00 | 247097 | 262171
16 | 58:15.47 | 2:27.05 | 262172 | 273201
17 | 60:42.52 | 1:48.27 | 273202 | 281328
18 | 62:31.04 | 1:42.03 | 281329 | 288981
19 | 64:13.07 | 4:11.05 | 288982 | 307811
20 | 68:24.12 | 3:28.20 | 307812 | 323431
21 | 71:52.32 | 1:40.53 | 323432 | 330984
22 | 73:33.10 | 2:40.72 | 330985 | 343056
23 | 76:14.07 | 2:32.15 | 343057 | 354471


Range status and errors

Selected range

Filename C:\temp\CCS 38616 Telemann - Concertos & cantata Ihr Volker Hort\Telemann - Concertos & cantata Ihr Volker Hort.wav

Peak level 56.3 %
Extraction speed 2.3 X
Range quality 100.0 %
Test CRC 56DF7449
Copy CRC 56DF7449
Copy OK

No errors occurred


AccurateRip summary

Track 1 accurately ripped (confidence 1) [3053FCD1] (AR v2)
Track 2 accurately ripped (confidence 1) [223F68AF] (AR v2)
Track 3 accurately ripped (confidence 1) [E5804FCC] (AR v2)
Track 4 accurately ripped (confidence 1) [7C391E88] (AR v2)
Track 5 accurately ripped (confidence 1) [D80D584D] (AR v2)
Track 6 accurately ripped (confidence 1) [36F3D87E] (AR v2)
Track 7 accurately ripped (confidence 1) [B31D1000] (AR v2)
Track 8 accurately ripped (confidence 1) [5023F500] (AR v2)
Track 9 accurately ripped (confidence 1) [4B97BC23] (AR v2)
Track 10 accurately ripped (confidence 1) [E6A2F2C8] (AR v2)
Track 11 accurately ripped (confidence 1) [30726097] (AR v2)
Track 12 accurately ripped (confidence 1) [7AE06F24] (AR v2)
Track 13 accurately ripped (confidence 1) [92C4C252] (AR v2)
Track 14 accurately ripped (confidence 1) [3EB00BFD] (AR v2)
Track 15 accurately ripped (confidence 1) [96BBB535] (AR v2)
Track 16 accurately ripped (confidence 1) [E9B3642C] (AR v2)
Track 17 accurately ripped (confidence 1) [400961B1] (AR v2)
Track 18 accurately ripped (confidence 1) [622AEA68] (AR v2)
Track 19 accurately ripped (confidence 1) [3699823E] (AR v2)
Track 20 accurately ripped (confidence 1) [97F0A00E] (AR v2)
Track 21 accurately ripped (confidence 1) [55E32B7E] (AR v2)
Track 22 accurately ripped (confidence 1) [B2768B0A] (AR v2)
Track 23 accurately ripped (confidence 1) [AD882FD9] (AR v2)

All tracks accurately ripped

End of status report

==== Log checksum B85AA1A10FF0C4C82BFEA291B7AEB5F191662DA093CF50BC608146E12982471A ====

foobar2000 1.2 / Dynamic Range Meter 1.1.1
log date: 2017-11-01 06:18:25

––––––––––––––––––––––––––––––––––––––––
Analyzed: Florilegium, Clare Wilkinson / Telemann - Concertos & cantata Ihr Völker Hört
––––––––––––––––––––––––––––––––––––––––

DR Peak RMS Duration Track
––––––––––––––––––––––––––––––––––––––––
DR14 -7.58 dB -26.68 dB 5:35 09-Cantata Ihr Völker Hört, TWV1: 921 - Aria: Ihr Völker Hört
DR13 -9.30 dB -26.79 dB 3:10 10-Cantata Ihr Völker Hört, TWV1: 921 - Recitative: Die Finsternis entweicht
DR13 -10.12 dB -27.42 dB 3:11 11-Cantata Ihr Völker Hört, TWV1: 921 - Aria: Halleluja
––––––––––––––––––––––––––––––––––––––––

Number of tracks: 3
Official DR value: DR14

Samplerate: 44100 Hz
Channels: 2
Bits per sample: 16
Bitrate: 595 kbps
Codec: FLAC
================================================================================

––––––––––––––––––––––––––––––––––––––––
Analyzed: Florilegium / Telemann - Concertos & cantata Ihr Völker Hört
––––––––––––––––––––––––––––––––––––––––

DR Peak RMS Duration Track
––––––––––––––––––––––––––––––––––––––––
DR10 -11.30 dB -25.41 dB 3:19 01-Concerto in E major, TWV53: E1 - I. Andante
DR14 -8.76 dB -25.44 dB 5:28 02-Concerto in E major, TWV53: E1 - II. Allegro
DR12 -10.79 dB -26.83 dB 3:19 03-Concerto in E major, TWV53: E1 - III. Siciliana
DR13 -9.25 dB -25.58 dB 4:29 04-Concerto in E major, TWV53: E1 - IV. Vivace
DR14 -8.38 dB -26.35 dB 3:54 05-Concerto in A minor, TWV52: a1 - I. Grave
DR14 -8.15 dB -25.68 dB 4:22 06-Concerto in A minor, TWV52: a1 - II. Allegro
DR12 -12.01 dB -28.37 dB 3:40 07-Concerto in A minor, TWV52: a1 - III. Dolce
DR13 -9.02 dB -26.00 dB 4:19 08-Concerto in A minor, TWV52: a1 - IV. Allegro
DR13 -10.17 dB -27.15 dB 2:26 12-Concerto in D major, TWV51: D2 - I. Moderato
DR13 -8.95 dB -26.31 dB 3:48 13-Concerto in D major, TWV51: D2 - II. Allegro
DR13 -13.22 dB -29.66 dB 3:54 14-Concerto in D major, TWV51: D2 - III. Largo
DR13 -7.82 dB -26.24 dB 3:21 15-Concerto in D major, TWV51: D2 - IV. Vivace
DR11 -9.13 dB -24.88 dB 2:27 16-Concerto a 4 in A minor, TWV43: a3 - I. Adagio
DR12 -10.88 dB -25.48 dB 1:48 17-Concerto a 4 in A minor, TWV43: a3 - II. Allegro
DR11 -10.65 dB -25.86 dB 1:42 18-Concerto a 4 in A minor, TWV43: a3 - III. Adagio
DR14 -8.55 dB -27.04 dB 4:11 19-Concerto a 4 in A minor, TWV43: a3 - IV. Vivace
DR13 -6.03 dB -23.44 dB 3:28 20-Overture in F major, TWV55: F16 - I. Ouverture
DR14 -11.79 dB -28.69 dB 1:41 21-Overture in F major, TWV55: F16 - II. Courante
DR14 -5.56 dB -23.65 dB 2:41 22-Overture in F major, TWV55: F16 - III. Bourree I & II
DR13 -4.98 dB -21.20 dB 2:32 23-Overture in F major, TWV55: F16 - IV. La Tempete
––––––––––––––––––––––––––––––––––––––––

Number of tracks: 20
Official DR value: DR13

Samplerate: 44100 Hz
Channels: 2
Bits per sample: 16
Bitrate: 595 kbps
Codec: FLAC
================================================================================

Florilegium, Clare Wilkinson - Georg Philipp Telemann: Concertos & Cantata Ihr Volker Hort (2016)

All thanks to original releaser

More interesting music in My Blog